Torrentów: 137213      Ranga: Gość               Stwórz konto Odzyskiwanie hasła


Kategorie
Filmy
 ⇒ DivX - XviD
 ⇒ RMVB
 ⇒ DVD-R
 ⇒ TV + Seriale
 ⇒ HDTV-HD
 ⇒ VCD - SVCD
 ⇒ x 264
 ⇒  3D
Gry
 ⇒ Gry PC
 ⇒ Gry Konsole
 ⇒ xbox360
Muzyka
 ⇒ Muzyka
 ⇒ Teledyski/Koncerty
Książki - Komiksy
 ⇒ E-Booki + Audio
 ⇒ Komiksy
Inne
 ⇒ XXX
 ⇒ Dla Dzieci
 ⇒ Sport
 ⇒ Pozostałe - Różne
 ⇒ Manga - Anime
 ⇒ GSM - PDA
Aplikacje
 ⇒ Windows
 ⇒ Linux + Macintosh



Detale torrenta

Wilcze Szczenię-Urufu gai: Moero ôkami-otoko (1975)[BRRip 1080p x264 by alE13 AC3/FLAC][Napisy PL/Eng][Japanese]
Kondycja:
Dodane: 07/06/2017
Rozmiar: 7.68 GB
Uploader: alE13

seed(ów): 1
leecher(ów): 0
Pobrane: 0





Ocena: N/A



http://www.imdb.com/title/tt0202114/
http://www.filmweb.pl/film/Urufu+gai%3A+Moero+%C3%B4kami-otoko-1975-165689

Plik zawiera Sample.

eng title:      "Wolf Guy"
reżyseria: Kazuhiko Yamaguchi
scenariusz: Fumio Kônami
gatunek: Horror
produkcja: Japonia
premiera: 05-04-1975
zdjęcia:        Yoshio Nakajima
czas:           1h 25min

opis:

Shinichi "Sonny" Chiba is WOLFGUY, the only survivor of a clan of werewolves who relies on his feral,
full-moon-activated superpowers to solve mysterious crimes. One night, a bizarre and bloody death in
the Tokyo streets plunges him into a far-reaching conspiracy populated by crooked politicians, naked
white women, bit-players like Hideo Murota, a phantom tiger, and...best of all... a shadowy organization.

Sonny Chiba to jedyny ocalały z klanu wilkołaków, który zależny jest od księżyca, musi rozwiązać tajemnicze
zbrodnie. Pewnej nocy, widzi dziwaczną i krwawą śmierć na ulicach Tokio, to doprowadza go w dalekosiężny
spisek polityków i tajemniczej organizacji.

http://i.imgur.com/iHuLRcR.jpg
http://i.imgur.com/fsOggHg.jpg
http://i.imgur.com/Bznz5EI.jpg
http://i.imgur.com/JfnD5tG.jpg

obsada:

Kyôsuke Machida, Shin'ichi Chiba, Saburô Date

dane techniczne:

Wolf guy (1975)-alE13.mkv
Format                      : Matroska
Format version              : Version 4 / Version 2
File size                   : 7.63 GiB
Duration                    : 1 h 25 min
Overall bit rate mode       : Variable
Overall bit rate            : 12.7 Mb/s
Movie name                  : Wolf guy (1975)-alE13
Encoded date                : UTC 2017-06-06 10:26:18
Writing application         : mkvmerge v8.1.0 ('Psychedelic Postcard') 64bit
Writing library             : libebml v1.3.1 + libmatroska v1.4.2
Cover                       : Yes
Attachments                 : Cover.jpg

Video
ID                          : 1
Format                      : AVC
Format/Info                 : Advanced Video Codec
Format profile              : High@L4.1
Format settings, CABAC      : Yes
Format settings, ReFrames   : 2 frames
Codec ID                    : V_MPEG4/ISO/AVC
Duration                    : 1 h 25 min
Bit rate                    : 12.1 Mb/s
Width                       : 1 920 pixels
Height                      : 824 pixels
Display aspect ratio        : 2.35:1
Frame rate mode             : Constant
Frame rate                  : 23.976 (24000/1001) FPS
Color space                 : YUV
Chroma subsampling          : 4:2:0
Bit depth                   : 8 bits
Scan type                   : Progressive
Bits/(Pixel*Frame)          : 0.320
Stream size                 : 7.29 GiB (96%)
Title                       : Wolfguy (1975)-alE13
Writing library             : x264 core 142
Default                     : Yes
Forced                      : No
Color range                 : Limited
Color primaries             : BT.709
Transfer characteristics    : BT.709
Matrix coefficients         : BT.709

Audio #1
ID                          : 2
Format                      : AC-3
Format/Info                 : Audio Coding 3
Mode extension              : CM (complete main)
Format settings, Endianness : Big
Codec ID                    : A_AC3
Duration                    : 1 h 25 min
Bit rate mode               : Constant
Bit rate                    : 256 kb/s
Channel(s)                  : 2 channels
Channel positions           : Front: L R
Sampling rate               : 48.0 kHz
Frame rate                  : 31.250 FPS (1536 spf)
Compression mode            : Lossy
Stream size                 : 157 MiB (2%)
Title                       : Wolf guy (1975)-alE13_AC3
Language                    : Japanese
Default                     : No
Forced                      : No

Audio #2
ID                          : 5
Format                      : FLAC
Format/Info                 : Free Lossless Audio Codec
Codec ID                    : A_FLAC
Duration                    : 1 h 25 min
Bit rate mode               : Variable
Bit rate                    : 305 kb/s
Channel(s)                  : 1 channel
Channel positions           : Front: C
Sampling rate               : 48.0 kHz
Frame rate                  : 11.719 FPS (4096 spf)
Bit depth                   : 16 bits
Stream size                 : 187 MiB (2%)
Title                       : Wolf guy (1975)-alE13_FLAC
Writing library             : libFLAC 1.2.1 (UTC 2007-09-17)
Language                    : Japanese
Default                     : Yes
Forced                      : No

Text #1
ID                          : 3
Format                      : UTF-8
Codec ID                    : S_TEXT/UTF8
Codec ID/Info               : UTF-8 Plain Text
Duration                    : 1 h 22 min
Bit rate                    : 21 b/s
Count of elements           : 452
Stream size                 : 12.7 KiB (0%)
Title                       : Wolf guy (1975)-alE13
Language                    : Polish
Default                     : Yes
Forced                      : No

Text #2
ID                          : 4
Format                      : UTF-8
Codec ID                    : S_TEXT/UTF8
Codec ID/Info               : UTF-8 Plain Text
Duration                    : 1 h 25 min
Bit rate                    : 25 b/s
Count of elements           : 484
Stream size                 : 16.3 KiB (0%)
Title                       : Wolf guy (1975)-alE13
Language                    : English
Default                     : No
Forced                      : No

Menu
00:00:00.000                : en:00:00:00.000
00:06:31.016                : en:00:06:31.016
00:13:32.687                : en:00:13:32.687
00:17:54.573                : en:00:17:54.573
00:24:13.661                : en:00:24:13.661
00:34:58.763                : en:00:34:58.763
00:44:08.855                : en:00:44:08.855
00:52:01.618                : en:00:52:01.618
01:00:55.110                : en:01:00:55.110
01:05:18.581                : en:01:05:18.581
01:10:10.497                : en:01:10:10.498
01:19:00.986                : en:01:19:00.986
Podobne torrenty
[HDTV-HD] Samotny Wilk i Szczenię-Lone Wolf & Cub- White Heaven in Hell (1974)[BRRip 1080p x264 by alE13 AC3/FLAC][Napisy PL/Eng][Jap]
[HDTV-HD] Młoda czarownica-Teen Witch (1989)[BRRip 1080p x264 by alE13 AC3/FLAC][Lektor i Napisy PL/Eng][Eng]
[HDTV-HD] 3 Dni Kondora-3 Days Of The Condor (1975)[BRRip 1080p by alE13 AC3/DTS][Lektor i Napisy PL/Eng][Eng]
[HDTV-HD] Szybcy i wściekli 8-The Fate of the Furious (2017)-alE13[BRRip 1080p x264 by alE13 AC3/DTS]Napisy PL/Eng][Eng]
[HDTV-HD] Miasto Aniołów-City of Angels (1998)-alE13[BRRip 1080p x264 by alE13 AC3/DTS][Lektor i Napisy PL/Eng][Eng]
[HDTV-HD] Barwy Nocy-Color of night (Director\'s Cut) (1994)-alE13[BRRip 1080p x264 by alE13 AC3][Lektor i Napisy PL/Eng][Eng]
[HDTV-HD] Krwawa Pani Śniegu-Shurayukihime (1973)[BRRip 1080p x264 by alE13 AC3/FLAC][Jap]
[HDTV-HD] Tora! Tora! Tora! (1970)[Extended Japanese Cut][BRRip 1080p HEVC by alE13 AC3/DTS][Lektor i Napisy PL/Eng][Eng]
[HDTV-HD] Bez wyjścia-No Way Out (1987)[BRRip 1080p x264 by alE13 AC3][Lektor i Napisy PL/Eng][Eng]
[HDTV-HD] Ben-Hur(2016)[BRRip 1080p x264 by alE13 AC3/DTS]Napisy PL/England][Eng]
Szczegóły torrenta
Trackerhttp://tracker.devil-torrents.pl/announce
Multitracker http://tracker.devil-torrents.pl/announce
http://tracker.torrentyorg.pl/announce
udp://tracker.opentrackr.org:1337/announce
udp://tracker.leechers-paradise.org:6969/announce
udp://tracker.ilibr.org:80/announce
udp://tracker.coppersurfer.tk:6969/announce
udp://p4p.arenabg.ch:1337/announce
udp://inferno.demonoid.pw:3391/announce

Kategoria:Filmy » HDTV-HD
Dodane07/06/2017 08:06:00
Ostatnie Uaktualnienie07/06/2017 08:49:00
Pokaż/Ukryj pliki:
15 plików
NIKT JESZCZE NIE DODAŁ KOMENTARZA

DODAJ KOMENTARZ
Więcej Emoticon



Wstecz

Żaden z opisanych na stronie plików nie jest przetrzymywany na serwerze. Administrator strony immortaltorrent.pl nie może ponieść konsekwencji prawnych za to co użytkownicy zamieszczają lub piszą na stronie.
Nie możesz używać tego serwisu do rozpowszechniania lub ściągania materiałów do których nie masz odpowiednich praw lub licencji. Użytkownicy zobowiązani są do przestrzeganie tych zasad.
Rejestracja konta jest jednoznaczna z akceptacją zasad.

2017 © immortaltorrent.pl


Najlepsze strony Torrentowe