Torrentów: 145294      Ranga: Gosc               Stwórz konto Odzyskiwanie hasła


Kategorie
Filmy
 ⇒ DivX - XviD
 ⇒ RMVB
 ⇒ DVD-R
 ⇒ TV + Seriale
 ⇒ HDTV-HD
 ⇒ VCD - SVCD
 ⇒ x 264
 ⇒  3D
Gry
 ⇒ Gry PC
 ⇒ Gry Konsole
 ⇒ xbox360
Muzyka
 ⇒ Muzyka
 ⇒ Teledyski/Koncerty
Książki - Komiksy
 ⇒ E-Booki + Audio
 ⇒ Komiksy
Inne
 ⇒ XXX
 ⇒ Dla Dzieci
 ⇒ Sport
 ⇒ Pozostałe - Różne
 ⇒ Manga - Anime
 ⇒ GSM - PDA
Aplikacje
 ⇒ Windows
 ⇒ Linux + Macintosh



Detale torrenta

50 cent - featuring Olivia
Kondycja:
Dodane: 25/03/2010
Rozmiar: 42.33 MB
Uploader: Anonimowy
seed(ów): 0
leecher(ów): 0
Pobrane: 49





Ocena: N/A

General :-

Complete name                    : 50 cent featuring Olivia- By Sandy.dat
Format                           : CDXA/MPEG-PS
File size                        : 42.1 MiB
Duration                         : 4mn 9s
Overall bit rate                 : 1 418 Kbps
Writing library                  : Created with Nero

Video :-

ID                               : 224 (0xE0)
Format                           : MPEG Video
Format version                   : Version 1
Format settings, BVOP            : Yes
Format settings, Matrix          : Default
Duration                         : 4mn 9s
Bit rate mode                    : Constant
Bit rate                         : 1 137 Kbps
Nominal bit rate                 : 1 100 Kbps
Width                            : 352 pixels
Height                           : 240 pixels
Display aspect ratio             : 4:3
Frame rate                       : 29.970 fps
Resolution                       : 8 bits
Scan type                        : Progressive
Bits/(Pixel*Frame)               : 0.449
Stream size                      : 33.8 MiB (80%)
Writing library                  : Ahead Nero

Audio :-

ID                               : 192 (0xC0)
Format                           : MPEG Audio
Format version                   : Version 1
Format profile                   : Layer 2
Duration                         : 4mn 9s
Bit rate mode                    : Constant
Bit rate                         : 224 Kbps
Channel(s)                       : 2 channels
Sampling rate                    : 44.1 KHz
Stream size                      : 6.66 MiB (16%)

http://i42.tinypic.com/2je2om8.jpg
Podobne torrenty
[Teledyski/Koncerty] 50 Cent feat. Olivia - Candy Shop [DVDRip.XviD]
[DivX - XviD] Olivia Newton-John - mężczyźni, kino i śpiew - Olivia Newton-John: Hopelessly Devoted to You (2018) [720p] [HDTV] [XViD] [AC3-H1] [Lektor PL]
[Teledyski/Koncerty] Asher Roth featuring Cee-Lo - Be By Myself
[XXX] Scene featuring the Sexy
[XXX] AmateurAllure featuring Kelsey
[Teledyski/Koncerty] Beyonce featuring Jay Z - Crazy In Love
[Teledyski/Koncerty] Shareefa featuring Ludacris - I Need A Boss
[XXX] Olivia Del Rio and Lex Steele
[XXX] Olivia Alize
[XXX] Olivia [Photos]
Szczegóły torrenta
Trackerhttp://fr33dom.h33t.com:3310/announce
Kategoria:Muzyka » Teledyski/Koncerty
Dodane25/03/2010 08:03:40
Ostatnie Uaktualnienie29/08/2013 20:50:19
NIKT JESZCZE NIE DODAŁ KOMENTARZA

DODAJ KOMENTARZ
Więcej Emoticon



Wstecz

Żaden z opisanych na stronie plików nie jest przetrzymywany na serwerze. Administrator strony immortaltorrent.pl nie może ponieść konsekwencji prawnych za to co użytkownicy zamieszczają lub piszą na stronie.
Nie możesz używać tego serwisu do rozpowszechniania lub ściągania materiałów do których nie masz odpowiednich praw lub licencji. Użytkownicy zobowiązani są do przestrzeganie tych zasad.
Rejestracja konta jest jednoznaczna z akceptacją zasad.

2018 © immortaltorrent.pl


Najlepsze strony Torrentowe