Torrentów: 138605      Ranga: Gość               Stwórz konto Odzyskiwanie hasła


Kategorie
Filmy
 ⇒ DivX - XviD
 ⇒ RMVB
 ⇒ DVD-R
 ⇒ TV + Seriale
 ⇒ HDTV-HD
 ⇒ VCD - SVCD
 ⇒ x 264
 ⇒  3D
Gry
 ⇒ Gry PC
 ⇒ Gry Konsole
 ⇒ xbox360
Muzyka
 ⇒ Muzyka
 ⇒ Teledyski/Koncerty
Książki - Komiksy
 ⇒ E-Booki + Audio
 ⇒ Komiksy
Inne
 ⇒ XXX
 ⇒ Dla Dzieci
 ⇒ Sport
 ⇒ Pozostałe - Różne
 ⇒ Manga - Anime
 ⇒ GSM - PDA
Aplikacje
 ⇒ Windows
 ⇒ Linux + Macintosh



Detale torrenta

Jimi Hendrix: Live at Woodstock (1969)[BRRip 1080p x264 by alE13 DTS][Multi Subtitles][Eng]
Kondycja:
Dodane: 16/11/2016
Rozmiar: 15.47 GB
Uploader: alE13

seed(ów): 1
leecher(ów): 1
Pobrane: 0





Ocena: N/A



Brak napisów PL.

reżyseria:  Michael Wadleigh
produkcja:  USA
premiera:   2008
gatunek:    Dokument, Rock, Blues, Koncert
czas:       1h 38mn + 1h 27mn + 6mn 41s + 9mn 40s + 9mn 52s

opis:

Jimi Hendrix: Live at Woodstock features all of the existing film footage from
Jimi Hendrix's unforgettable August 1969 Woodstock concert newly re-edited and
presented uninterrupted and in its original performance sequence. It features
never before seen version of "Foxey Lady," " Message To Love," "Hey Joe,"
"Spanish Castle Magic," and "Lover Man." The audio soundtrack now includes a new
previously unavailable 5.1 and 2.0 stereo soundtrack mixed by Eddie Kramer,
Jimi's original engineer.

Blu Ray Jimi Hendrix: Live At Woodstock zawiera wszystkie istniejące materiały filmowe
z niezapomnianego sierpnia 1969 w Woodstock. Koncert Jimiego Hendrixa został od nowa
poddany obróbce i zaprezentowany jak w oryginale. Zawiera też nigdy wcześniej nie widziane
wersje "Foxey Lady", "Message To Love", "Hey Joe", "Spanish Castle Magic" i "Lover Man".
Ścieżka dźwiękowa zawiera teraz nowy wcześniej niedostępny soundtrack 5,1 i 2,0 stereo
zmiksowany przez Eddie Kramera, pierwotnego inżyniera dźwięku Jimiego.

more:

http://www.blu-ray.com/movies/Jimi-Hendrix-Live-at-Woodstock-Blu-ray/2132/

obsada:

Jimi Hendrix

tracklist:

Jimi Hendrix: Live At Woodstock
01. Intro
02. Message To Love
03. Spanish Castle Magic
04. Red House
05. Lover Man
06. Foxey Lady
07. Jam Back At The House
08. Izabella
09. Fire
10. Voodoo Child (Slight Return)
11. Star Spangled Banner
12. Purple Haze
13. Woodstock Improvisation
14. Villanova Junction
15. Hey Joe
16. The Road To Woodstock: New documentary directed by Bob Smeaton featuring
new interviews with Hendrix band members Mitch Mitchell Billy Cox Juma Sultan
and Larry Lee engineer Eddie Kramer and Woodstock promoter Michael Lang among others.
17. Outro

dane techniczne:

Jimi Hendrix - Live at Woodstock (1969)-alE13.mkv
Format                      : Matroska
Format version              : Version 4 / Version 2
File size                   : 8.92 GiB
Duration                    : 1 h 38 min
Overall bit rate            : 12.9 Mb/s
Movie name                  : Jimi Hendrix - Live at Woodstock (1969)-alE13
Encoded date                : UTC 2016-11-15 13:59:50
Writing application         : mkvmerge v8.1.0 ('Psychedelic Postcard') 64bit
Writing library             : libebml v1.3.1 + libmatroska v1.4.2
Cover                       : Yes
Attachments                 : cover.png

Video
ID                          : 1
Format                      : AVC
Format/Info                 : Advanced Video Codec
Format profile              : High@L4.1
Format settings, CABAC      : Yes
Format settings, ReFrames   : 2 frames
Codec ID                    : V_MPEG4/ISO/AVC
Duration                    : 1 h 38 min
Bit rate                    : 8 154 kb/s
Width                       : 1 920 pixels
Height                      : 1 080 pixels
Display aspect ratio        : 16:9
Frame rate mode             : Constant
Frame rate                  : 23.976 (24000/1001) FPS
Color space                 : YUV
Chroma subsampling          : 4:2:0
Bit depth                   : 8 bits
Scan type                   : Progressive
Bits/(Pixel*Frame)          : 0.164
Stream size                 : 5.62 GiB (63%)
Title                       : Jimi Hendrix - Live at Woodstock (1969)-alE13
Writing library             : x264 core 142
Default                     : Yes
Forced                      : No
Color range                 : Limited
Color primaries             : BT.709
Transfer characteristics    : BT.709
Matrix coefficients         : BT.709

Audio
ID                          : 2
Format                      : DTS
Format/Info                 : Digital Theater Systems
Format profile              : MA / Core
Mode                        : 16
Format settings, Endianness : Big
Codec ID                    : A_DTS
Duration                    : 1 h 38 min
Bit rate mode               : Variable / Constant
Bit rate                    : 4 755 kb/s / 1 509 kb/s
Channel(s)                  : 6 channels
Channel positions           : Front: L C R, Side: L R, LFE
Sampling rate               : 48.0 kHz
Frame rate                  : 93.750 FPS (512 spf)
Bit depth                   : 24 bits
Compression mode            : Lossless / Lossy
Stream size                 : 3.28 GiB (37%)
Title                       : Jimi Hendrix - Live at Woodstock (1969)-alE13_DTS/MA
Language                    : English
Default                     : Yes
Forced                      : No

Text #1
ID                          : 3
Format                      : PGS
Muxing mode                 : zlib
Codec ID                    : S_HDMV/PGS
Codec ID/Info               : Picture based subtitle format used on BDs/HD-DVDs
Duration                    : 1 h 37 min
Bit rate                    : 6 448 b/s
Count of elements           : 543
Stream size                 : 4.50 MiB (0%)
Title                       : Jimi Hendrix - Live at Woodstock (1969)-alE13
Language                    : English
Default                     : Yes
Forced                      : No

Text #2
ID                          : 4
Format                      : PGS
Muxing mode                 : zlib
Codec ID                    : S_HDMV/PGS
Codec ID/Info               : Picture based subtitle format used on BDs/HD-DVDs
Duration                    : 1 h 37 min
Bit rate                    : 6 295 b/s
Count of elements           : 546
Stream size                 : 4.39 MiB (0%)
Title                       : Jimi Hendrix - Live at Woodstock (1969)-alE13
Language                    : Spanish
Default                     : No
Forced                      : No

Text #3
ID                          : 5
Format                      : PGS
Muxing mode                 : zlib
Codec ID                    : S_HDMV/PGS
Codec ID/Info               : Picture based subtitle format used on BDs/HD-DVDs
Duration                    : 1 h 37 min
Bit rate                    : 6 288 b/s
Count of elements           : 547
Stream size                 : 4.39 MiB (0%)
Title                       : Jimi Hendrix - Live at Woodstock (1969)-alE13
Language                    : French
Default                     : No
Forced                      : No

Text #4
ID                          : 6
Format                      : PGS
Muxing mode                 : zlib
Codec ID                    : S_HDMV/PGS
Codec ID/Info               : Picture based subtitle format used on BDs/HD-DVDs
Duration                    : 1 h 37 min
Bit rate                    : 7 070 b/s
Count of elements           : 545
Stream size                 : 4.94 MiB (0%)
Title                       : Jimi Hendrix - Live at Woodstock (1969)-alE13
Language                    : German
Default                     : No
Forced                      : No

Text #5
ID                          : 7
Format                      : PGS
Muxing mode                 : zlib
Codec ID                    : S_HDMV/PGS
Codec ID/Info               : Picture based subtitle format used on BDs/HD-DVDs
Duration                    : 1 h 37 min
Bit rate                    : 6 515 b/s
Count of elements           : 544
Stream size                 : 4.55 MiB (0%)
Title                       : Jimi Hendrix - Live at Woodstock (1969)-alE13
Language                    : Portuguese
Default                     : No
Forced                      : No
Podobne torrenty
[HDTV-HD] Barbra Streisand-Live In Concert (2006)[BRRip 1080p x264 by alE13 AC3/PCM][Multi Subtitles][Eng]
[Muzyka] Jimi Hendrix - Live At Woodstock [FLAC]
[HDTV-HD] Pan Wołodyjowski-Colonel Wolodyjowski (1969) Part [BRRip.1080p.x264.AC3/DTS][Subtitles Eng][PL]
[x 264] Jimi Hendrix: Hear My Train A Comin\' *2013* [1080p.BDRip.x264.DTS5.1] [ENG]
[Muzyka] Jimi Hendrix - West Coast Seattle Boy The Jimi Hendrix Anthology (2010)
[HDTV-HD] 100 Karabinów-100 Rifles (1969) [BRRip 1080p x264 by alE13 AAC/DTS][Lektor i Napisy PL/Eng][Eng]
[ 3D] Shrek trzeci-Shrek the Third 3D (2007) [BRRip 1080p x264 by alE13 AC3/DTS/Multi]Dubbing i Napisy PL/Multi][Eng]
[HDTV-HD] Złoto Mackenny-Mackenna\'s Gold (1969)[BRRip 1080p x264 by alE13 AC3][Lektor i Napisy PL/Eng][Eng]
[HDTV-HD] Nocny Kowboj-Midnight Cowboy (1969)[BRRip 1080p x264 by alE13 AC3/DTS][Lektor i Napisy PL][Eng]
[HDTV-HD] Quo Vadis (1951)[BRRip 1080p x264 by alE13 AC3][Lektor i Napisy PL/Eng/Multi][Eng]
Szczegóły torrenta
Trackerhttp://tracker.torrentyorg.pl/announce
Multitracker http://tracker.torrentyorg.pl/announce
http://mgtracker.org:2710/announce
http://pow7.com:80/announce
http://pow7.com/announce
udp://tracker.leechers-paradise.org:6969/announce
udp://tracker.coppersurfer.tk:6969/announce
udp://tracker.opentrackr.org:1337/announce
udp://tracker.coppersurfer.tk:6969/announce
udp://tracker.leechers-paradise.org:6969/announce
udp://eddie4.nl:6969/announce
udp://tracker.coppersurfer.tk:6969/announce
udp://p4p.arenabg.com:1337/announce
udp://p4p.arenabg.ch:1337/announce
udp://tracker.internetwarriors.net:1337/announce
udp://tracker.openbittorrent.com:80/announce
udp://tracker.piratepublic.com:1337/announce
udp://tracker.opentrackr.org:1337/announce
udp://explodie.org:6969/announce
udp://p4p.arenabg.ch:1337/announce
udp://inferno.demonoid.ooo:3392/announce
udp://inferno.demonoid.pw:3393/announce
udp://tracker.coppersurfer.tk:6969/announce
udp://zer0day.to:1337/announce
udp://tracker.ilibr.org:6969/announce
udp://tracker.leechers-paradise.org:6969/announce
udp://eddie4.nl:6969/announce
udp://tracker.ilibr.org:80/announce

Kategoria:Muzyka » Teledyski/Koncerty
Dodane16/11/2016 08:11:14
Ostatnie Uaktualnienie16/11/2016 08:57:14
Pokaż/Ukryj pliki:
21 plików
NIKT JESZCZE NIE DODAŁ KOMENTARZA

DODAJ KOMENTARZ
Więcej Emoticon



Wstecz

Żaden z opisanych na stronie plików nie jest przetrzymywany na serwerze. Administrator strony immortaltorrent.pl nie może ponieść konsekwencji prawnych za to co użytkownicy zamieszczają lub piszą na stronie.
Nie możesz używać tego serwisu do rozpowszechniania lub ściągania materiałów do których nie masz odpowiednich praw lub licencji. Użytkownicy zobowiązani są do przestrzeganie tych zasad.
Rejestracja konta jest jednoznaczna z akceptacją zasad.

2017 © immortaltorrent.pl


Najlepsze strony Torrentowe