Torrentów: 134815      Ranga: Gość               Stwórz konto Odzyskiwanie hasła


Kategorie
Filmy
 ⇒ DivX - XviD
 ⇒ RMVB
 ⇒ DVD-R
 ⇒ TV + Seriale
 ⇒ HDTV-HD
 ⇒ VCD - SVCD
 ⇒ x 264
 ⇒  3D
Gry
 ⇒ Gry PC
 ⇒ Gry Konsole
 ⇒ xbox360
Muzyka
 ⇒ Muzyka
 ⇒ Teledyski/Koncerty
Książki - Komiksy
 ⇒ E-Booki + Audio
 ⇒ Komiksy
Inne
 ⇒ XXX
 ⇒ Dla Dzieci
 ⇒ Sport
 ⇒ Pozostałe - Różne
 ⇒ Manga - Anime
 ⇒ GSM - PDA
Aplikacje
 ⇒ Windows
 ⇒ Linux + Macintosh



Detale torrenta

Uwiązani - Men Women and Children (2014) [BRRip] [XviD-torentup] [Lektor PL]
Kondycja:
Dodane: 12/09/2015
Rozmiar: 700.90 MB
Uploader: torentup

seed(ów): 6
leecher(ów): 4
Pobrane: 10





Ocena: N/A

Uwiązani - Men Women and Children (2014) [BRRip] [XviD-torentup] [Lektor PL]



Reżyseria: Jason Reitman
Scenariusz: Jason Reitman
Gatunek: Dramat,Komedia
Produkcja: USA
Premiera: 6 września 2014 (świat)

★ http://www.filmweb.pl/film/Uwi%C4%85zani-2014-701515★



Małomówny, przygnębiony Don (Adam Sandler) nie podejmuje żadnych działań, by pokonać stagnację w swoim małżeństwie. Satysfakcję znajduje jedynie w masturbowaniu się, oglądając porno filmiki w internecie. Gdy pewnego dnia używa do tego komputera 15-letniego syna Chrisa (Travis Tope), odkrywa, że ten regularnie korzysta z podobnych stronek i jest bardziej obeznany w temacie, niż on sam. Z tego powodu chłopak ma problemy z najseksowniejszą cheerleaderką w szkolę Hannah (Olivia Crocicchia), marzącą o zostaniu znaną celebrytką. W dążeniu do celu pomaga jej matka Donna (Judy Greer) i wedle sugestii lokalnej agencji talentów zakłada córce stronę internetową, powiększając galerię o coraz to odważniejsze zdjęcia. Tymczasem drugoklasista Tim (Ansel Elgort) - najszybszy biegacz w szkolnej drużynie futbolowej - zmaga się z odejściem matki...



Adam Sandler ... Don Truby
Jennifer Garner ... Patricia Beltmeyer
Rosemarie DeWitt ... Rachel Truby
Judy Greer ... Donna Clint
Dean Norris ... Kent Mooney
Emma Thompson ... (głos)
Olivia Crocicchia ... Hannah Clint



http://img.liczniki.org/20150907/Uwi_zani_Men_Women_and_Children__2014__BRRip__XviD_torentup__Lektor_PL_-1441638178.jpg

Format             : AVI
Format/Info          : Audio Video Interleave
File size           : 700 MiB
Duration            : 1h 59mn
Overall bit rate        : 821 Kbps
Writing library        : VirtualDub build 32842/release

Video
ID               : 0
Format             : MPEG-4 Visual
Format profile         : Advanced Simple@L5
Format settings, BVOP     : Yes
Format settings, QPel     : No
Format settings, GMC      : No warppoints
Format settings, Matrix    : Default (H.263)
Codec ID            : XVID
Codec ID/Hint         : XviD
Duration            : 1h 59mn
Bit rate            : 684 Kbps
Width             : 640 pixels
Height             : 352 pixels
Display aspect ratio      : 16:9
Frame rate           : 23.976 fps
Color space          : YUV
Chroma subsampling       : 4:2:0
Bit depth           : 8 bits
Scan type           : Progressive
Compression mode        : Lossy
Bits/(Pixel*Frame)       : 0.127
Stream size          : 583 MiB (83%)
Writing library        : XviD 64

Audio
ID               : 1
Format             : MPEG Audio
Format version         : Version 1
Format profile         : Layer 3
Mode              : Joint stereo
Mode extension         : MS Stereo
Codec ID            : 55
Codec ID/Hint         : MP3
Duration            : 1h 59mn
Bit rate mode         : Constant
Bit rate            : 128 Kbps
Channel(s)           : 2 channels
Sampling rate         : 48.0 KHz
Compression mode        : Lossy
Stream size          : 109 MiB (16%)
Alignment           : Split accross interleaves
Interleave, duration      : 42 ms (1.00 video frame)
Interleave, preload duration  : 500 ms

Trailer
Podobne torrenty
[DivX - XviD] Mężczyźni, Kobiety i Dzieci - Men, Women & Children *2014* [BRRip.XviD] [Lektor PL IVO]
[DivX - XviD] Mężczyźni, Kobiety i Dzieci - Men, Women & Children *2014* [BRRip] [XViD-MX] [Lektor PL] [marcinc33]
[DivX - XviD] Mężczyźni,Kobiety i Dzieci - Men, Women and Children (2014) [BRRip] [XviD-MORS] [Lektor PL]
[DivX - XviD] Men, Women & Children *2014* [BRRip] [XViD-J25] [ENG] [Napisy PL] [marcinc33]
[DivX - XviD] Stretch (2014) [BRRip][XviD-torentup] [Lektor PL]
[Muzyka] Remembering Never - Women And Children Die First [mp3@320]
[Muzyka] Van Halen - Women and Children First
[DivX - XviD] 22 Jump Street (2014) [BDRip] [XviD-torentup] [Lektor PL]
[DivX - XviD] Gamoń Le Corniaud (1965) [AC3][BRRip][XviD-torentup] [Lektor PL]
[Dla Dzieci] Lego Hero Factory (2010)[BRRip][Xvid-torentup][Lektor PL]
Szczegóły torrenta
Trackerudp://tracker.openbittorrent.com:80/announce
Multitracker udp://tracker.openbittorrent.com:80/announce
udp://tracker.publicbt.com:80/announce
http://tracker.torrenty.org:6969/announce
http://tracker.filetracker.pl:8089/announce
http://tracker.aletorrenty.pl:2710/announce
udp://tracker.aletorrenty.pl:2710/announce
http://94.228.192.98/announce
udp://open.demonii.com:1337
udp://9.rarbg.com:2710/announce
udp://11.rarbg.com:80/announce
http://www.tlv.cc:7777/announce
http://tracker.ex.ua:80/announce
http://tracker.nwps.ws:6969/announce
http://announce.torrentsmd.com:6969/announce
udp://10.rarbg.com/announce
udp://tracker.istole.it:80/announce
udp://exodus.desync.com:6969
udp://exodus.desync.com:6969/announce
udp://tracker.publicbt.com:80/announce
udp://tracker.token.ro:80/announce
udp://castradio.net:6969/announce
udp://ipv4.tracker.harry.lu:80/announce
udp://tracker.prq.to:80/announce
udp://tracker.openbittorrent.com:80/announce
http://tracker.ex.ua:80/announce
udp://tracker.istole.it:80
udp://tracker.ilibr.org:6969/announce
udp://tracker.openbittorrent.com:80
http://tracker.filetracker.pl:8089/announce
http://exodus.desync.com:6969/announce
udp://tracker.prq.to:80/announce
http://tracker.ex.ua:80/announce
udp://tracker.istole.it:80
udp://tracker.ilibr.org:6969/announce
http://tracker.torrenty.org:6969/announce
udp://tracker.publicbt.com/announce
udp://openbittorrent.com:80
udp://9.rarbg.com:2710/announce
udp://t1.pow7.com/announce
udp://tracker.torrentbay.to:6969/announce
udp://tracker.prq.to/announce
udp://tracker.istole.it:80/announce
udp://exodus.desync.com:6969/announce
udp://exodus.desync.com:6969/announce
http://tracker.torrenty.org:6969/announce
http://free-torrents.org/bt/announce.php?uk=KMAQBe0sF1&
http://retracker.local/announce
http://10.rarbg.com:80/announce
http://360.kicks-ass.org/announce.php
http://64.62.145.163:6969/announce
http://alt.bitworld.to/announce.php
http://anvilofsound.com/announce
http://arcoiris.argonet.hu/announce.php
http://bithq.org/announce.php
http://bit-pit.com/announce.php
http://bittorrent.dyndns.org:6969/announce
http://bootcity.org:2710/announce
http://bt.edwardk.info:6969/announce
http://bt.go2id.net/announce.php
http://bt.moviehub.info/announce.php

Kategoria:Filmy » DivX - XviD
Dodane12/09/2015 00:09:47
Ostatnie Uaktualnienie13/09/2015 20:59:51
Pokaż/Ukryj pliki:
5 plików
NIKT JESZCZE NIE DODAŁ KOMENTARZA

DODAJ KOMENTARZ
Więcej Emoticon



Wstecz

Żaden z opisanych na stronie plików nie jest przetrzymywany na serwerze. Administrator strony immortaltorrent.pl nie może ponieść konsekwencji prawnych za to co użytkownicy zamieszczają lub piszą na stronie.
Nie możesz używać tego serwisu do rozpowszechniania lub ściągania materiałów do których nie masz odpowiednich praw lub licencji. Użytkownicy zobowiązani są do przestrzeganie tych zasad.
Rejestracja konta jest jednoznaczna z akceptacją zasad.

2017 © immortaltorrent.pl


Najlepsze strony Torrentowe