Torrentów: 134086      Ranga: Gość               Stwórz konto Odzyskiwanie hasła


Kategorie
Filmy
 ⇒ DivX - XviD
 ⇒ RMVB
 ⇒ DVD-R
 ⇒ TV + Seriale
 ⇒ HDTV-HD
 ⇒ VCD - SVCD
 ⇒ x 264
 ⇒  3D
Gry
 ⇒ Gry PC
 ⇒ Gry Konsole
 ⇒ xbox360
Muzyka
 ⇒ Muzyka
 ⇒ Teledyski/Koncerty
Książki - Komiksy
 ⇒ E-Booki + Audio
 ⇒ Komiksy
Inne
 ⇒ XXX
 ⇒ Dla Dzieci
 ⇒ Sport
 ⇒ Pozostałe - Różne
 ⇒ Manga - Anime
 ⇒ GSM - PDA
Aplikacje
 ⇒ Windows
 ⇒ Linux + Macintosh



Detale torrenta

Ostatni żywy bandyta-The Last Outlaw (1993 [HDTVRip 1080p x264 by alE13 AC3][Lektor i Napisy PL/Eng][Eng]
Kondycja:
Dodane: 08/10/2016
Rozmiar: 7.91 GB
Uploader: alE13

seed(ów): 1
leecher(ów): 2
Pobrane: 36





Ocena: N/A



http://www.filmweb.pl/film/Ostatni+%C5%BCywy+bandyta-1993-10551
http://www.imdb.com/title/tt0110307/

reżyseria: Geoff Murphy
scenariusz: Eric Red
gatunek: Western
produkcja: USA
premiera: 30-10-1993
muzyka:         Mason Daring
zdjęcia:        Jack Conroy
czas:           1h 32mn

opis:

Left for dead by his bank robbing gang, a marauder joins a posse to seek revenge.

W czasie wojny secesyjnej pułkownik Graff walczył po stronie konfederatów. Po jej
zakończeniu staje na czele gangu, który okrada banki Jankesów. Jeden z napadów się nie udaje.



obsada:

Mickey Rourke, Dermot Mulroney, Ted Levine

dane techniczne:

The Last Outlaw (1993)-alE13.mkv
Format                      : Matroska
Format version              : Version 4 / Version 2
File size                   : 7.84 GiB
Duration                    : 1h 32mn
Overall bit rate mode       : Variable
Overall bit rate            : 12.1 Mbps
Movie name                  : The Last Outlaw (1993)-alE13
Encoded date                : UTC 2016-10-08 05:39:55
Writing application         : mkvmerge v8.1.0 ('Psychedelic Postcard') 64bit
Writing library             : libebml v1.3.1 + libmatroska v1.4.2
Attachements                : cover.jpg
DURATION                    : 01:30:00.628000000
NUMBER_OF_FRAMES            : 1304
NUMBER_OF_BYTES             : 36091
_STATISTICS_WRITING_APP     : mkvmerge v8.1.0 ('Psychedelic Postcard') 64bit
_STATISTICS_WRITING_DATE_UT : 2016-10-08 05:39:55
_STATISTICS_TAGS            : BPS DURATION NUMBER_OF_FRAMES NUMBER_OF_BYTES

Video
ID                          : 1
Format                      : AVC
Format/Info                 : Advanced Video Codec
Format profile              : High@L4
Format settings, CABAC      : Yes
Format settings, ReFrames   : 3 frames
Codec ID                    : V_MPEG4/ISO/AVC
Duration                    : 1h 32mn
Bit rate mode               : Variable
Bit rate                    : 11.4 Mbps
Maximum bit rate            : 20.0 Mbps
Width                       : 1 920 pixels
Height                      : 1 080 pixels
Display aspect ratio        : 16:9
Frame rate mode             : Constant
Frame rate                  : 29.970 fps
Standard                    : PAL
Color space                 : YUV
Chroma subsampling          : 4:2:0
Bit depth                   : 8 bits
Scan type                   : Progressive
Bits/(Pixel*Frame)          : 0.183
Stream size                 : 7.37 GiB (94%)
Title                       : The Last Outlaw (1993)-alE13
Default                     : Yes
Forced                      : No
Color range                 : Limited
Color primaries             : BT.709
Transfer characteristics    : BT.709
Matrix coefficients         : BT.709

Audio #1
ID                          : 2
Format                      : E-AC-3
Format/Info                 : Audio Coding 3
Format settings, Endianness : Big
Codec ID                    : A_EAC3
Duration                    : 1h 32mn
Bit rate mode               : Constant
Bit rate                    : 224 Kbps
Channel(s)                  : 2 channels
Channel positions           : Front: L R
Sampling rate               : 48.0 KHz
Compression mode            : Lossy
Stream size                 : 149 MiB (2%)
Title                       : The Last Outlaw (1993)-alE13
Language                    : English
Default                     : No
Forced                      : No

Audio #2
ID                          : 3
Format                      : AC-3
Format/Info                 : Audio Coding 3
Mode extension              : CM (complete main)
Format settings, Endianness : Big
Codec ID                    : A_AC3
Duration                    : 1h 32mn
Bit rate mode               : Constant
Bit rate                    : 256 Kbps
Channel(s)                  : 2 channels
Channel positions           : Front: L R
Sampling rate               : 48.0 KHz
Compression mode            : Lossy
Delay relative to video     : 750ms
Stream size                 : 170 MiB (2%)
Title                       : The Last Outlaw (1993)-alE13
Language                    : Polish
Default                     : Yes
Forced                      : No

Text #1
ID                          : 4
Format                      : UTF-8
Codec ID                    : S_TEXT/UTF8
Codec ID/Info               : UTF-8 Plain Text
Title                       : The Last Outlaw (1993)-alE13
Language                    : Polish
Default                     : Yes
Forced                      : No

Text #2
ID                          : 5
Format                      : UTF-8
Codec ID                    : S_TEXT/UTF8
Codec ID/Info               : UTF-8 Plain Text
Title                       : The Last Outlaw (1993)-alE13
Language                    : English
Default                     : No
Forced                      : No
Podobne torrenty
[RMVB] Ostatni Żywy Bandyta - The Last Outlaw *1993* [FS.DVDRip.RMVB] [Napisy PL]
[DivX - XviD] The.Last.Outlaw [Ostatni Zywy Bandyta] 1994.XviD.Eng
[HDTV-HD] Sądna Noc-Judgment Night (1993)[BRRip 1080p x264 by alE13 AC3/DTS][Lektor i Napisy PL/Eng][Eng]
[HDTV-HD] Coś-The Thing (1982)[BRRip 1080p x264 by alE13 AC3][Lektor i Napisy PL/Eng][Eng]
[HDTV-HD] Gladiator(2000)[BRRip 1080p x264 by alE13 AC3][Lektor i Napisy PL/Eng][Eng]
[HDTV-HD] Centurion (2010)[BRRip 1080p x264 by alE13 DTS/AC3][Lektor i Napisy PL/Eng][Eng]
[HDTV-HD] Bez wyjścia-No Way Out (1987)[BRRip 1080p x264 by alE13 AC3][Lektor i Napisy PL/Eng][Eng]
[HDTV-HD] Equilibrium (2002)[BRRip 1080p x264 by alE13 AC3][Lektor i Napisy PL/Eng][Eng]
[HDTV-HD] State of Grace (1990)[BDRip 1080p x264 by alE13 AC3/DTS][Lektor i Napisy PL/Eng][Eng]
[HDTV-HD] Nevada Smith (1966)[WEBRip.1080p.x264 by alE13.AC3][Lektor i Napisy PL/Eng][Eng]
Szczegóły torrenta
Trackerhttp://mgtracker.org:2710/announce
Multitracker http://mgtracker.org:2710/announce
http://pow7.com:80/announce
http://pow7.com/announce
udp://tracker.leechers-paradise.org:6969/announce
udp://tracker.coppersurfer.tk:6969/announce
udp://tracker.opentrackr.org:1337/announce
udp://tracker.coppersurfer.tk:6969/announce
udp://tracker.leechers-paradise.org:6969/announce
udp://eddie4.nl:6969/announce
udp://tracker.coppersurfer.tk:6969/announce
udp://p4p.arenabg.com:1337/announce
udp://p4p.arenabg.ch:1337/announce
udp://tracker.internetwarriors.net:1337/announce
udp://tracker.openbittorrent.com:80/announce
udp://tracker.piratepublic.com:1337/announce
udp://tracker.opentrackr.org:1337/announce
udp://explodie.org:6969/announce
udp://p4p.arenabg.ch:1337/announce
udp://inferno.demonoid.ooo:3392/announce
udp://inferno.demonoid.pw:3393/announce
udp://tracker.coppersurfer.tk:6969/announce
udp://zer0day.to:1337/announce
udp://tracker.ilibr.org:6969/announce
udp://tracker.leechers-paradise.org:6969/announce
udp://eddie4.nl:6969/announce
udp://tracker.ilibr.org:80/announce

Kategoria:Filmy » HDTV-HD
Dodane08/10/2016 08:10:15
Ostatnie Uaktualnienie23/10/2016 19:04:24
Pokaż/Ukryj pliki:
10 plików
NIKT JESZCZE NIE DODAŁ KOMENTARZA

DODAJ KOMENTARZ
Więcej Emoticon



Wstecz

Żaden z opisanych na stronie plików nie jest przetrzymywany na serwerze. Administrator strony immortaltorrent.pl nie może ponieść konsekwencji prawnych za to co użytkownicy zamieszczają lub piszą na stronie.
Nie możesz używać tego serwisu do rozpowszechniania lub ściągania materiałów do których nie masz odpowiednich praw lub licencji. Użytkownicy zobowiązani są do przestrzeganie tych zasad.
Rejestracja konta jest jednoznaczna z akceptacją zasad.

2017 © immortaltorrent.pl


Najlepsze strony Torrentowe