Torrentów: 145893      Ranga: Gosc               Stwórz konto Odzyskiwanie hasła


Kategorie
Filmy
 ⇒ DivX - XviD
 ⇒ RMVB
 ⇒ DVD-R
 ⇒ TV + Seriale
 ⇒ HDTV-HD
 ⇒ VCD - SVCD
 ⇒ x 264
 ⇒  3D
Gry
 ⇒ Gry PC
 ⇒ Gry Konsole
 ⇒ xbox360
Muzyka
 ⇒ Muzyka
 ⇒ Teledyski/Koncerty
Książki - Komiksy
 ⇒ E-Booki + Audio
 ⇒ Komiksy
Inne
 ⇒ XXX
 ⇒ Dla Dzieci
 ⇒ Sport
 ⇒ Pozostałe - Różne
 ⇒ Manga - Anime
 ⇒ GSM - PDA
Aplikacje
 ⇒ Windows
 ⇒ Linux + Macintosh



Detale torrenta

Pearl Jam - Even Flow
Kondycja:
Dodane: 25/03/2010
Rozmiar: 40.33 MB
Uploader: Anonimowy
seed(ów): 1
leecher(ów): 0
Pobrane: ---





Ocena: N/A

General

Format           : AVI
Format/Info      : Audio Video Interleave
File size        : 40.3 MiB
Duration         : 5mn 25s
Overall bit rate : 1 041 Kbps


Video

Format           : S-Mpeg 4 v2
Codec ID         : MP42
Codec ID/Info    : Microsoft MPEG-4 V2
Duration         : 5mn 24s
Bit rate         : 901 Kbps
Width            : 480 pixels
Height           : 360 pixels
Display aspect ratio: 4:3
Frame rate       : 30.000 fps
Bits/(Pixel*Frame): 0.174
Stream size      : 34.8 MiB (86%)


Audio

ID               : 1
Format           : MPEG Audio
Format version   : Version 1
Format profile   : Layer 3
Mode             : Joint stereo
Format_Settings_ModeExtension: MS Stereo
Codec ID         : 55
Codec ID/Hint    : MP3
Duration         : 5mn 25s
Bit rate mode    : Constant
Bit rate         : 128 Kbps
Channel(s)       : 2 channels
Sampling rate    : 44.1 KHz
Stream size      : 4.96 MiB (12%)
Alignment        : Aligned on interleaves
Interleave,duration: 26 ms (0.78 video frame)

http://i42.tinypic.com/2u3xulf.jpg
Podobne torrenty
[Muzyka] Black Pearl - Black Pearl and Live at Fillmore (1969-1970)
[Gry Konsole] FLOW [MULTI5][USA] PSP
[XXX] Pure18 - Juicy flow
[Windows] Flow Architect Studio 3D 1.3.10 [PL/ENG]
[Muzyka] Company Flow - Funcrusher Plus[Mp3]
[Muzyka] Paura - Reverse The Flow (2007)
[E-Booki + Audio] Instrumentation for Fluid - Particle Flow [Eng]
[x 264] Hustle and Flow *2005* [HDTVRip.x264]
[Muzyka] Mark Chesnutt-Rollin With The Flow-2008][mp3@180]
[Windows] Flow Architect Studio 3D 1.7.6 Build 17.4.2013.346 [PL/ENG] [Full]
Szczegóły torrenta
Trackerhttp://fr33dom.h33t.com:3310/announce
Kategoria:Muzyka » Teledyski/Koncerty
Dodane25/03/2010 08:03:53
Ostatnie Uaktualnienie08/12/2012 08:52:12
NIKT JESZCZE NIE DODAŁ KOMENTARZA

DODAJ KOMENTARZ
Więcej Emoticon



Wstecz

Żaden z opisanych na stronie plików nie jest przetrzymywany na serwerze. Administrator strony immortaltorrent.pl nie może ponieść konsekwencji prawnych za to co użytkownicy zamieszczają lub piszą na stronie.
Nie możesz używać tego serwisu do rozpowszechniania lub ściągania materiałów do których nie masz odpowiednich praw lub licencji. Użytkownicy zobowiązani są do przestrzeganie tych zasad.
Rejestracja konta jest jednoznaczna z akceptacją zasad.

2018 © immortaltorrent.pl


Najlepsze strony Torrentowe