Torrentów: 137128      Ranga: Go¶æ               Stwórz konto Odzyskiwanie has³a


Kategorie
Filmy
 ⇒ DivX - XviD
 ⇒ RMVB
 ⇒ DVD-R
 ⇒ TV + Seriale
 ⇒ HDTV-HD
 ⇒ VCD - SVCD
 ⇒ x 264
 ⇒  3D
Gry
 ⇒ Gry PC
 ⇒ Gry Konsole
 ⇒ xbox360
Muzyka
 ⇒ Muzyka
 ⇒ Teledyski/Koncerty
Ksi±¿ki - Komiksy
 ⇒ E-Booki + Audio
 ⇒ Komiksy
Inne
 ⇒ XXX
 ⇒ Dla Dzieci
 ⇒ Sport
 ⇒ Pozosta³e - Ró¿ne
 ⇒ Manga - Anime
 ⇒ GSM - PDA
Aplikacje
 ⇒ Windows
 ⇒ Linux + Macintosh



Detale torrenta

Harjunpää i kap³an z³a-Priest of Evil (2010)[BRRip 1080p x264 by alE13 AC3/DTS][Lektor i Napisy PL/Eng/Fin][Fin]
Kondycja:
Dodane: 02/10/2017
Rozmiar: 9.09 GB
Uploader: alE13

seed(ów): 1
leecher(ów): 0
Pobrane: 0





Ocena: N/A

[img]https://i.imgur.com/wcL4zQW.jpg[/img]

http://www.imdb.com/title/tt1604577/
http://www.filmweb.pl/film/Harjunp%C3%A4%C3%A4+i+kap%C5%82an+z%C5%82a-2010-562155

Audio DTS w osobnym pliku.
Plik zawiera Sample.


re¿yseria: Olli Saarela
scenariusz: Leo Viirret
gatunek: Krymina³,Thriller
produkcja: Finlandia
premiera: 29-10-2010
muzyka:         Tomi Malm,Jyrki Rahkonen
zdjêcia:        Rauno Ronkainen
czas:           1h 45min

opis:

Detective Sergeant Timo Harjunpää the Helsinki Violent Crimes Unit is an honest and conscientious cop;one
of the city's very best;who loses his daughter in tragic circumstances. Despite the support he receives
Timo is unable to recover from his loss.

Film "Harjumpaa i kap³an z³a" powsta³ na podstawie popularnej w Finlandii ksi±¿ki o tym samym tytule autorstwa
Mattiego Yrjänä Joensuu. Opowiada historiê Timo Harjunpää (Peter Franzén) - policjanta, który musi rozwi±zaæ
zagadkê zbrodni w helsiñskim metrze oraz znale¼æ zabójcê swojej córki, któr± bestialsko zamordowano pod klubem.

https://i.imgur.com/skwj2hN.jpg
https://i.imgur.com/KukWMaz.jpg
https://i.imgur.com/m5vWvjl.jpg
https://i.imgur.com/euNJom0.jpg

[img]https://i.imgur.com/skwj2hN.jpg[/img]
[img]https://i.imgur.com/KukWMaz.jpg[/img]
[img]https://i.imgur.com/m5vWvjl.jpg[/img]
[img]https://i.imgur.com/euNJom0.jpg[/img]

obsada:

Peter Franzén, Irina Björklund, Sampo Sarkola

dane techniczne:

Harjunpää ja pahan pappi (2010)-alE13.mkv
Format                      : Matroska
Format version              : Version 4 / Version 2
File size                   : 7.93 GiB
Duration                    : 1 h 45 min
Overall bit rate            : 10.8 Mb/s
Movie name                  : Harjunpää ja pahan pappi (2010)-alE13
Encoded date                : UTC 2017-10-02 15:45:39
Writing application         : mkvmerge v8.1.0 ('Psychedelic Postcard') 64bit
Writing library             : libebml v1.3.1 + libmatroska v1.4.2
Cover                       : Yes
Attachments                 : Cover.jpg

Video
ID                          : 1
Format                      : AVC
Format/Info                 : Advanced Video Codec
Format profile              : High@L4.1
Format settings, CABAC      : Yes
Format settings, RefFrames  : 2 frames
Codec ID                    : V_MPEG4/ISO/AVC
Duration                    : 1 h 45 min
Bit rate                    : 9 756 kb/s
Width                       : 1 920 pixels
Height                      : 812 pixels
Display aspect ratio        : 2.35:1
Frame rate mode             : Constant
Frame rate                  : 23.976 (24000/1001) FPS
Color space                 : YUV
Chroma subsampling          : 4:2:0
Bit depth                   : 8 bits
Scan type                   : Progressive
Bits/(Pixel*Frame)          : 0.261
Stream size                 : 7.18 GiB (90%)
Title                       : Harjunpää ja pahan pappi (2010)-alE13
Writing library             : x264 core 142
Default                     : Yes
Forced                      : No
Color range                 : Limited
Color primaries             : BT.709
Transfer characteristics    : BT.709
Matrix coefficients         : BT.709

Audio #1
ID                          : 2
Format                      : AC-3
Format/Info                 : Audio Coding 3
Format settings, Endianness : Big
Codec ID                    : A_AC3
Duration                    : 1 h 45 min
Bit rate mode               : Constant
Bit rate                    : 640 kb/s
Channel(s)                  : 6 channels
Channel positions           : Front: L C R, Side: L R, LFE
Sampling rate               : 48.0 kHz
Frame rate                  : 31.250 FPS (1536 SPF)
Bit depth                   : 16 bits
Compression mode            : Lossy
Stream size                 : 482 MiB (6%)
Title                       : Harjunpää ja pahan pappi (2010)-alE13_AC3
Language                    : Finnish
Service kind                : Complete Main
Default                     : No
Forced                      : No

Audio #2
ID                          : 3
Format                      : AC-3
Format/Info                 : Audio Coding 3
Format settings, Endianness : Big
Codec ID                    : A_AC3
Duration                    : 1 h 45 min
Bit rate mode               : Constant
Bit rate                    : 384 kb/s
Channel(s)                  : 2 channels
Channel positions           : Front: L R
Sampling rate               : 48.0 kHz
Frame rate                  : 31.250 FPS (1536 SPF)
Bit depth                   : 16 bits
Compression mode            : Lossy
Delay relative to video     : 16 ms
Stream size                 : 290 MiB (4%)
Title                       : Harjunpää ja pahan pappi (2010)-alE13_AC3
Language                    : Polish
Service kind                : Complete Main
Default                     : Yes
Forced                      : No

Text #1
ID                          : 4
Format                      : UTF-8
Codec ID                    : S_TEXT/UTF8
Codec ID/Info               : UTF-8 Plain Text
Duration                    : 1 h 37 min
Bit rate                    : 30 b/s
Count of elements           : 623
Stream size                 : 21.5 KiB (0%)
Title                       : Harjunpää ja pahan pappi (2010)-alE13_SRT
Language                    : Polish
Default                     : No
Forced                      : No

Text #2
ID                          : 5
Format                      : UTF-8
Codec ID                    : S_TEXT/UTF8
Codec ID/Info               : UTF-8 Plain Text
Duration                    : 1 h 37 min
Bit rate                    : 28 b/s
Count of elements           : 623
Stream size                 : 20.4 KiB (0%)
Title                       : Harjunpää ja pahan pappi (2010)-alE13_srt
Language                    : English
Default                     : No
Forced                      : No

Text #3
ID                          : 6
Format                      : UTF-8
Codec ID                    : S_TEXT/UTF8
Codec ID/Info               : UTF-8 Plain Text
Duration                    : 1 h 37 min
Bit rate                    : 34 b/s
Count of elements           : 634
Stream size                 : 24.3 KiB (0%)
Title                       : Harjunpää ja pahan pappi (2010)-alE13_srt
Language                    : Finnish
Default                     : No
Forced                      : No
Podobne torrenty
[ 3D] Resident Evil: Ostatni Rozdzia³-Resident Evil: The Final Chapter 3D (2016)[BRRip 1080p x264 by alE13 AC3/DTS][Lektor i Napisy PL/Eng][Eng]
[HDTV-HD] Resident Evil: Vendetta (2017)[BRRip 1080p x264 by alE13 AC3/DTS][Lektor i Napisy PL/Eng][Eng]
[HDTV-HD] Centurion (2010)[BRRip 1080p x264 by alE13 DTS/AC3][Lektor i Napisy PL/Eng][Eng]
[HDTV-HD] Turysta-The Tourist (2010)[BRRip 1080p x264 by alE13 AC3/DTS][Lektor i Napisy PL/Eng][Eng]
[HDTV-HD] Resident Evil: Ostatni Rozdzia³-Resident Evil: The Final Chapter (2016)[WEBRip 1080p x264 by alE13 AC3][Lektor IVO i Napisy PL/Eng][Eng]
[HDTV-HD] W pogoni za zemst±-Faster (2010) [BRRip 1080p x264 by alE13 AC3/DTS][Lektor i Napisy PL/Eng][Eng]
[HDTV-HD] Irlandzki Szlak-Route Irish (2010)[BRRip 1080p x264 by alE13 DTS/AC3][Lektor i Napisy PL/Multi Sub][Eng]
[HDTV-HD] Miasto Anio³ów-City of Angels (1998)-alE13[BRRip 1080p x264 by alE13 AC3/DTS][Lektor i Napisy PL/Eng][Eng]
[HDTV-HD] Barwy Nocy-Color of night (Director\'s Cut) (1994)-alE13[BRRip 1080p x264 by alE13 AC3][Lektor i Napisy PL/Eng][Eng]
[HDTV-HD] ¦lepota ¶nie¿na-Snowblind (2010)[BRRip 1080p x264 by alE13 AC3/DTS][Napisy PL/Eng][Ger]
Szczegó³y torrenta
Trackerhttp://tracker.devil-torrents.pl/announce
Multitracker http://tracker.devil-torrents.pl/announce
http://tracker.torrentyorg.pl/announce
udp://tracker.opentrackr.org:1337/announce
udp://tracker.leechers-paradise.org:6969/announce
udp://tracker.ilibr.org:80/announce
udp://tracker.coppersurfer.tk:6969/announce
udp://p4p.arenabg.ch:1337/announce
udp://inferno.demonoid.pw:3391/announce

Kategoria:Filmy » HDTV-HD
Dodane02/10/2017 18:10:32
Ostatnie Uaktualnienie02/10/2017 18:16:32
Poka¿/Ukryj pliki:
16 plików
NIKT JESZCZE NIE DODA£ KOMENTARZA

DODAJ KOMENTARZ
Wiêcej Emoticon



Wstecz

Żaden z opisanych na stronie plików nie jest przetrzymywany na serwerze. Administrator strony immortaltorrent.pl nie może ponieść konsekwencji prawnych za to co użytkownicy zamieszczają lub piszą na stronie.
Nie możesz używać tego serwisu do rozpowszechniania lub ściągania materiałów do których nie masz odpowiednich praw lub licencji. Użytkownicy zobowiązani są do przestrzeganie tych zasad.
Rejestracja konta jest jednoznaczna z akceptacją zasad.

2017 © immortaltorrent.pl


Najlepsze strony Torrentowe