Torrentów: 136516      Ranga: Go¶ć               Stwórz konto Odzyskiwanie hasła


Kategorie
Filmy
 ⇒ DivX - XviD
 ⇒ RMVB
 ⇒ DVD-R
 ⇒ TV + Seriale
 ⇒ HDTV-HD
 ⇒ VCD - SVCD
 ⇒ x 264
 ⇒  3D
Gry
 ⇒ Gry PC
 ⇒ Gry Konsole
 ⇒ xbox360
Muzyka
 ⇒ Muzyka
 ⇒ Teledyski/Koncerty
Ksi±żki - Komiksy
 ⇒ E-Booki + Audio
 ⇒ Komiksy
Inne
 ⇒ XXX
 ⇒ Dla Dzieci
 ⇒ Sport
 ⇒ Pozostałe - Różne
 ⇒ Manga - Anime
 ⇒ GSM - PDA
Aplikacje
 ⇒ Windows
 ⇒ Linux + Macintosh



Detale torrenta

Krwawy Ojciec-Blood Father (2016) [BDRip 1080p x264 by alE13 AC3/DTS]Napisy PL/Eng][Eng]
Kondycja:
Dodane: 06/10/2016
Rozmiar: 7.91 GB
Uploader: alE13

seed(ów): 1
leecher(ów): 53
Pobrane: 0





Ocena: N/A



http://www.filmweb.pl/film/Blood+Father-2016-716470
http://www.imdb.com/title/tt3647498/

reżyseria: Jean-François Richet
scenariusz: Peter Craig,Andrea Berloff
gatunek: Thriller,Akcja
produkcja: Francja,USA
premiera: 21-05-2016
zdjęcia:        Robert Gantz
czas:           1h 28mn

opis:

An ex-con reunites with his estranged wayward 17-year old daughter to protect her from drug
dealers who are trying to kill her.

Były więzień na warunkowym zwolnieniumusi ratować życie swej od dawna nie widzianej córki,
której grozi niebezpieczeństwo ze strony handlarzy narkotyków.



obsada:

Mel Gibson, Erin Moriarty, Diego Luna

dane techniczne:

Blood Father (2016)-alE13.mkv
Format                      : Matroska
Format version              : Version 4 / Version 2
File size                   : 7.84 GiB
Duration                    : 1h 28mn
Overall bit rate            : 12.7 Mbps
Movie name                  : Blood Father (2016)-alE13
Encoded date                : UTC 2016-10-05 20:43:43
Writing application         : mkvmerge v8.1.0 ('Psychedelic Postcard') 64bit
Writing library             : libebml v1.3.1 + libmatroska v1.4.2
Attachements                : cover.jpg
DURATION                    : 01:28:12.768000000
NUMBER_OF_FRAMES            : 165399
NUMBER_OF_BYTES             : 296395008
_STATISTICS_WRITING_APP     : mkvmerge v8.1.0 ('Psychedelic Postcard') 64bit
_STATISTICS_WRITING_DATE_UT : 2016-10-05 20:43:43
_STATISTICS_TAGS            : BPS DURATION NUMBER_OF_FRAMES NUMBER_OF_BYTES

Video
ID                          : 1
Format                      : AVC
Format/Info                 : Advanced Video Codec
Format profile              : High@L4.1
Format settings, CABAC      : Yes
Format settings, ReFrames   : 2 frames
Codec ID                    : V_MPEG4/ISO/AVC
Duration                    : 1h 28mn
Bit rate                    : 10.8 Mbps
Width                       : 1 920 pixels
Height                      : 804 pixels
Display aspect ratio        : 2.40:1
Frame rate mode             : Constant
Frame rate                  : 23.976 fps
Color space                 : YUV
Chroma subsampling          : 4:2:0
Bit depth                   : 8 bits
Scan type                   : Progressive
Bits/(Pixel*Frame)          : 0.291
Stream size                 : 6.48 GiB (83%)
Title                       : Blood Father (2016)-alE13
Writing library             : x264 core 142
Default                     : Yes
Forced                      : No
Color range                 : Limited
Color primaries             : BT.709
Transfer characteristics    : BT.709
Matrix coefficients         : BT.709

Audio #1
ID                          : 2
Format                      : DTS
Format/Info                 : Digital Theater Systems
Mode                        : 16
Format settings, Endianness : Big
Codec ID                    : A_DTS
Duration                    : 1h 28mn
Bit rate mode               : Constant
Bit rate                    : 1 509 Kbps
Channel(s)                  : 6 channels
Channel positions           : Front: L C R, Side: L R, LFE
Sampling rate               : 48.0 KHz
Bit depth                   : 24 bits
Compression mode            : Lossy
Stream size                 : 952 MiB (12%)
Title                       : Blood Father (2016)-alE13_DTS
Language                    : English
Default                     : No
Forced                      : No

Audio #2
ID                          : 4
Format                      : AC-3
Format/Info                 : Audio Coding 3
Mode extension              : CM (complete main)
Format settings, Endianness : Big
Codec ID                    : A_AC3
Duration                    : 1h 28mn
Bit rate mode               : Constant
Bit rate                    : 448 Kbps
Channel(s)                  : 6 channels
Channel positions           : Front: L C R, Side: L R, LFE
Sampling rate               : 48.0 KHz
Compression mode            : Lossy
Stream size                 : 283 MiB (4%)
Title                       : Blood Father (2016)-alE13_AC3
Language                    : English
Default                     : Yes
Forced                      : No

Text
ID                          : 3
Format                      : UTF-8
Codec ID                    : S_TEXT/UTF8
Codec ID/Info               : UTF-8 Plain Text
Title                       : Blood Father (2016)-alE13_color
Language                    : Polish
Default                     : Yes
Forced                      : No

Menu
00:00:00.000                : en:Chapter 01
00:08:23.211                : en:Chapter 02
00:15:56.163                : en:Chapter 03
00:24:36.516                : en:Chapter 04
00:30:10.767                : en:Chapter 05
00:37:15.190                : en:Chapter 06
00:49:58.787                : en:Chapter 07
00:56:37.435                : en:Chapter 08
01:03:54.956                : en:Chapter 09
01:11:52.683                : en:Chapter 10
01:20:01.546                : en:Chapter 11
01:26:27.265                : en:Chapter 12
Podobne torrenty
[DivX - XviD] Krwawy ojciec - Blood Father *2016* [WEB-DL] [XviD-MX] [Napisy PL]
[ 3D] Załoga-Ekipazh 3D (2016)[BDRip 1080p x264 by alE13 AC3][Napisy PL/Eng][Rus]
[ 3D] Doktor Strange-Doctor Strange (IMAX Edition) 3D (2016)-alE13[BDRip 1080p x264 by alE13 AC3][Dubbing i Napisy PL][Eng]
[HDTV-HD] Zaginiony Trop-Skiptrace (2016)[BDRip 1080p x264 by alE13 AC3][Napisy PL/Eng][Eng]
[ 3D] Pasażerowie-Passengers 3D (2016)[BDRip 1080p x264 by alE13 AC3/DTS][Napisy PL/Eng/Multi Sub][Eng]
[HDTV-HD] W Dolinie Zła-In A Valley Of Violence (2016)[BDRip 1080p x264 by alE13 AC3/DTS][Napisy PL/Eng][Eng]
[HDTV-HD] Skandynawscy W¶ciekli 2-Børning 2 Nordic (On Ice) (2016) [BDRip 1080p x264 by alE13 AC3/DTS][Napisy PL/Eng/Fin][Nor]
[HDTV-HD] Baba Jaga-Don\'t Knock Twice (2016)[BDRip 1080p x264 by alE13 AC3/DTS][Lektor Ivona i Napisy PL/Eng][Eng]
[ 3D] Fantastyczne zwierzęta i jak je znaleĽć-Fantastic Beasts and Where to Find Them 3D (2016)[BDRip 1080p x264 by alE13 AC3/DTS][Dubbing i Napisy PL/Eng][Eng]
[ 3D] Sing 3D (2016)[BDRip 1080p x264 by alE13 AC3][Dubbing PL/Sub Eng][Eng]
Szczegóły torrenta
Trackerhttp://mgtracker.org:2710/announce
Multitracker http://mgtracker.org:2710/announce
http://pow7.com:80/announce
http://pow7.com/announce
udp://tracker.leechers-paradise.org:6969/announce
udp://tracker.coppersurfer.tk:6969/announce
udp://tracker.opentrackr.org:1337/announce
udp://tracker.coppersurfer.tk:6969/announce
udp://tracker.leechers-paradise.org:6969/announce
udp://eddie4.nl:6969/announce
udp://tracker.coppersurfer.tk:6969/announce
udp://p4p.arenabg.com:1337/announce
udp://p4p.arenabg.ch:1337/announce
udp://tracker.internetwarriors.net:1337/announce
udp://tracker.openbittorrent.com:80/announce
udp://tracker.piratepublic.com:1337/announce
udp://tracker.opentrackr.org:1337/announce
udp://explodie.org:6969/announce
udp://p4p.arenabg.ch:1337/announce
udp://inferno.demonoid.ooo:3392/announce
udp://inferno.demonoid.pw:3393/announce
udp://tracker.coppersurfer.tk:6969/announce
udp://zer0day.to:1337/announce
udp://tracker.ilibr.org:6969/announce
udp://tracker.leechers-paradise.org:6969/announce
udp://eddie4.nl:6969/announce
udp://tracker.ilibr.org:80/announce

Kategoria:Filmy » HDTV-HD
Dodane06/10/2016 08:10:55
Ostatnie Uaktualnienie06/10/2016 15:19:53
Pokaż/Ukryj pliki:
9 plików
NIKT JESZCZE NIE DODAŁ KOMENTARZA

DODAJ KOMENTARZ
Więcej Emoticon



Wstecz

Żaden z opisanych na stronie plików nie jest przetrzymywany na serwerze. Administrator strony immortaltorrent.pl nie może ponieść konsekwencji prawnych za to co użytkownicy zamieszczają lub piszą na stronie.
Nie możesz używać tego serwisu do rozpowszechniania lub ściągania materiałów do których nie masz odpowiednich praw lub licencji. Użytkownicy zobowiązani są do przestrzeganie tych zasad.
Rejestracja konta jest jednoznaczna z akceptacją zasad.

2017 © immortaltorrent.pl


Najlepsze strony Torrentowe