Torrentów: 134809      Ranga: Gość               Stwórz konto Odzyskiwanie hasła


Kategorie
Filmy
 ⇒ DivX - XviD
 ⇒ RMVB
 ⇒ DVD-R
 ⇒ TV + Seriale
 ⇒ HDTV-HD
 ⇒ VCD - SVCD
 ⇒ x 264
 ⇒  3D
Gry
 ⇒ Gry PC
 ⇒ Gry Konsole
 ⇒ xbox360
Muzyka
 ⇒ Muzyka
 ⇒ Teledyski/Koncerty
Książki - Komiksy
 ⇒ E-Booki + Audio
 ⇒ Komiksy
Inne
 ⇒ XXX
 ⇒ Dla Dzieci
 ⇒ Sport
 ⇒ Pozostałe - Różne
 ⇒ Manga - Anime
 ⇒ GSM - PDA
Aplikacje
 ⇒ Windows
 ⇒ Linux + Macintosh



Detale torrenta

Sztos (1997)[DVDRip] [XviD-torentup] [FILM POLSKI]
Kondycja:
Dodane: 08/08/2016
Rozmiar: 695.66 MB
Uploader: torentup

seed(ów): 27
leecher(ów): 6
Pobrane: 53





Ocena: N/A

=====================
INFO
================

reżyseria: Olaf Lubaszenko
scenariusz: Jerzy Kolasa
gatunek: Komedia, Sensacyjny
produkcja: Polska
premiera: 22 sierpnia 1997 (Polska) 22 sierpnia 1997 (świat)



=====================
OPIS
====================

Na początku lat siedemdziesiątych, w scenerii polskiego Wybrzeża, splatają się losy dwóch takich, co nie
jeden księżyc ukradli. "Synek" wyszedł z kicia i za wszelką cenę chce się dobrze w życiu urządzić.
Starszy Eryk, wytrawny hochsztapler, musi się odegrać na kumplu, który go wykiwał w pokerze.
Ale do tego jest potrzebna duża kasa. Obaj więc wyruszają w Polskę siejąc spustoszenie... w portfelach
dewizowych turystów. Jeszcze tylko rozprawa z "Gruchą" czyli finałowy Sztos, a potem żyć nie umierać,
trwoniąc łatwo zarobiony szmal. Plan jest przedni tyle, że na każdym planie można się przejechać.


=====================
OBSADA
====================

Cezary Pazura − Synek
Jan Nowicki − Eryk
Ewa Gawryluk − Beata
Krzysztof Zaleski − Grucha
Henryk Bista − prokurator
Leon Niemczyk − niemiecki turysta Josef
Emil Karewicz − niemiecki turysta
Edward Linde-Lubaszenko − Edward
Janusz Stokłosa − muzyk

=====================
DANE TECHNICZNE
=====================

Format                         : AVI
Format/Info                    : Audio Video Interleave
File size                      : 696 MiB
Duration                       : 1h 26mn
Overall bit rate               : 1 123 Kbps
Writing application            : Nandub v1.0rc2
Writing library                : Nandub build 1853/release

Video
ID                             : 0
Format                         : MPEG-4 Visual
Codec ID                       : DIV3
Codec ID/Hint                  : DivX 3 Low
Duration                       : 1h 26mn
Bit rate                       : 982 Kbps
Width                          : 640 pixels
Height                         : 400 pixels
Display aspect ratio           : 16:10
Frame rate                     : 25.000 fps
Color space                    : YUV
Chroma subsampling             : 4:2:0
Bit depth                      : 8 bits
Compression mode               : Lossy
Bits/(Pixel*Frame)             : 0.153
Stream size                    : 608 MiB (87%)

Audio
ID                             : 1
Format                         : MPEG Audio
Format version                 : Version 1
Format profile                 : Layer 3
Codec ID                       : 55
Codec ID/Hint                  : MP3
Duration                       : 1h 26mn
Bit rate mode                  : Constant
Bit rate                       : 128 Kbps
Channel(s)                     : 2 channels
Sampling rate                  : 48.0 KHz
Compression mode               : Lossy
Stream size                    : 79.3 MiB (11%)
Alignment                      : Aligned on interleaves
Interleave, duration           : 24 ms (0.60 video frame)
Interleave, preload duration   : 480 ms

Podobne torrenty
[DivX - XviD] Sztos 2 *2012* [720p.BRRip.XviD.AC3-TLRG] [PL] [Film Polski]
[DivX - XviD] Moje corki krowy(2015)[DVDRip] [XviD-torentup] [Film Polski]
[DivX - XviD] 7 rzeczy, których nie wiecie o facetach 2016 [DVDRip.XviD-torentup][Film Polski]
[DivX - XviD] Excentrycy, czyli po słonecznej stronie ulicy (2015) [DVDRip] [Xvid-torentup] [Film Polski ]
[DVD-R] Młode Wilki 1/2 (1997) [PAL][DVD5][Film Polski]
[DivX - XviD] Sztos *1997* [DVDRip DivX] [PL]
[RMVB] POLSKA KLASYKA - Krótki film o zabijaniu - A Short Film About Killing *1987*[RMVB][DVDRip][Polski]
[DivX - XviD] Pitbull - Nowe porzadki (2016) [DVDRip] [XviD-torentup] [Lektor Polski ]
[TV + Seriale] Sensacje XX Wieku - Szabla Polski *2015* [720p] [HDTV] [FILM POLSKI] - tomeks
[DivX - XviD] E=mc2 *2002* [DVDRip.XviD.AC3.5.1] [PL] [Film Polski]
Szczegóły torrenta
Trackerhttp://tracker.filetracker.pl:8089/announce
Multitracker http://tracker.filetracker.pl:8089/announce
http://tracker.free-torrents.pl/announce
http://tracker.streettorrent.pl:80/announce
http://tracker.torrenty.org:6969/announce
http://tracker.aletorrenty.pl:2710/announce
http://tracker.pubt.net:2710/announce
http://94.228.192.98/announce
http://www.tlv.cc:7777/announce
http://retracker.omsk.ru:2710/announce
http://tracker.immortaltorrent.pl/announce
udp://open.demonii.com:1337/announce
http://tracker.best-torrents.net:6969/announce
udp://torrent.gresille.org:80/announce
udp://9.rarbg.me:2710/announce
udp://eddie4.nl:6969/announce
udp://tracker.leechers-paradise.org:6969/announce
udp://tracker4.piratux.com:6969/announce
udp://www.eddie4.nl:6969/announce
udp://tracker.openbittorrent.com:80/announce
udp://tracker.publicbt.com:80/announce
udp://ipv4.tracker.harry.lu:80/announce
udp://tracker.publicbt.com/announce
udp://shadowshq.eddie4.nl:6969/announce
udp://9.rarbg.com:2710/announce
udp://11.rarbg.com:80/announce
udp://10.rarbg.com/announce
udp://tracker.istole.it:80/announce
udp://exodus.desync.com:6969
udp://tracker.prq.to/announce
udp://tracker.openbittorrent.com:80/announce
udp://tracker.publicbt.com:80/announce

Kategoria:Filmy » DivX - XviD
Dodane08/08/2016 23:08:32
Ostatnie Uaktualnienie10/08/2016 22:06:39
Pokaż/Ukryj pliki:
5 plików
NIKT JESZCZE NIE DODAŁ KOMENTARZA

DODAJ KOMENTARZ
Więcej Emoticon



Wstecz

Żaden z opisanych na stronie plików nie jest przetrzymywany na serwerze. Administrator strony immortaltorrent.pl nie może ponieść konsekwencji prawnych za to co użytkownicy zamieszczają lub piszą na stronie.
Nie możesz używać tego serwisu do rozpowszechniania lub ściągania materiałów do których nie masz odpowiednich praw lub licencji. Użytkownicy zobowiązani są do przestrzeganie tych zasad.
Rejestracja konta jest jednoznaczna z akceptacją zasad.

2017 © immortaltorrent.pl


Najlepsze strony Torrentowe