Torrentów: 135294      Ranga: Gość               Stwórz konto Odzyskiwanie hasła


Kategorie
Filmy
 ⇒ DivX - XviD
 ⇒ RMVB
 ⇒ DVD-R
 ⇒ TV + Seriale
 ⇒ HDTV-HD
 ⇒ VCD - SVCD
 ⇒ x 264
 ⇒  3D
Gry
 ⇒ Gry PC
 ⇒ Gry Konsole
 ⇒ xbox360
Muzyka
 ⇒ Muzyka
 ⇒ Teledyski/Koncerty
Książki - Komiksy
 ⇒ E-Booki + Audio
 ⇒ Komiksy
Inne
 ⇒ XXX
 ⇒ Dla Dzieci
 ⇒ Sport
 ⇒ Pozostałe - Różne
 ⇒ Manga - Anime
 ⇒ GSM - PDA
Aplikacje
 ⇒ Windows
 ⇒ Linux + Macintosh



Detale torrenta

Głęboka Czerwień-Deep Red (1975)[BDRip 1080p by alE13 AC3[Napisy PL/Eng][Eng/Ita]
Kondycja:
Dodane: 29/12/2016
Rozmiar: 8.70 GB
Uploader: alE13

seed(ów): 1
leecher(ów): 0
Pobrane: 0





Ocena: N/A



http://www.imdb.com/title/tt0073582/
http://www.filmweb.pl/film/G%C5%82%C4%99boka+czerwie%C5%84-1975-37601

Plik zawiera Sample.

reżyseria: Dario Argento
scenariusz: Dario Argento, Bernardino Zapponi
gatunek: Thriller
produkcja: Włochy
premiera: 07-03-1975
muzyka:         Goblin, Giorgio Gaslini
zdjęcia:        Luigi Kuveiller
czas:           2h 6mn

opis:

After witnessing the murder of a famous psychic, a musician teams up with a feisty
reporter to find the killer while evading attempts on their lives by the unseen assailant
bent on keeping a dark secret buried.

Podczas konferencji parapsychologicznej niemiecka telepatka, Helga Hullmann, wyczuwa niepokojącą
obecność - ktoś ukryty wśród publiczności obmyśla właśnie bestialską zbrodnię. Tego samego wieczoru,
po powrocie do domu, Helga zostaje brutalnie zamordowana. Przypadkowym świadkiem morderstwa jest
młody angielski pianista, Marc Daily. Nie mógł uratować kobiety i nie potrafi rozpoznać zabójcy,
więc postanawia poprowadzić własne śledztwo, by zidentyfikować mordercę.

http://i.imgur.com/hA83UPC.jpg
http://i.imgur.com/UPwzrOF.jpg
http://i.imgur.com/Oe2qUhG.jpg
http://i.imgur.com/8Uaxydv.jpg

obsada:

David Hemmings, Daria Nicolodi, Gabriele Lavia

dane techniczne:

Deep Red (1975)-alE13.mkv
Format                      : Matroska
Format version              : Version 4 / Version 2
File size                   : 8.52 GiB
Duration                    : 2 h 6 min
Overall bit rate mode       : Variable
Overall bit rate            : 9 632 kb/s
Movie name                  : Deep Red (1975)-alE13
Encoded date                : UTC 2016-12-29 06:03:22
Writing application         : mkvmerge v8.1.0 ('Psychedelic Postcard') 64bit
Writing library             : libebml v1.3.1 + libmatroska v1.4.2
Cover                       : Yes
Attachments                 : cover.jpg

Video
ID                          : 1
Format                      : AVC
Format/Info                 : Advanced Video Codec
Format profile              : High@L4
Format settings, CABAC      : Yes
Format settings, ReFrames   : 3 frames
Codec ID                    : V_MPEG4/ISO/AVC
Duration                    : 2 h 6 min
Bit rate mode               : Variable
Bit rate                    : 8 763 kb/s
Maximum bit rate            : 20.0 Mb/s
Width                       : 1 824 pixels
Height                      : 776 pixels
Display aspect ratio        : 2.35:1
Frame rate mode             : Constant
Frame rate                  : 23.976 (24000/1001) FPS
Standard                    : PAL
Color space                 : YUV
Chroma subsampling          : 4:2:0
Bit depth                   : 8 bits
Scan type                   : Progressive
Bits/(Pixel*Frame)          : 0.258
Stream size                 : 7.75 GiB (91%)
Title                       : Deep Red (1975)-alE13
Language                    : English
Default                     : Yes
Forced                      : No
Color range                 : Limited
Color primaries             : BT.709
Transfer characteristics    : BT.709
Matrix coefficients         : BT.709

Audio #1
ID                          : 2
Format                      : AC-3
Format/Info                 : Audio Coding 3
Mode extension              : CM (complete main)
Format settings, Endianness : Big
Codec ID                    : A_AC3
Duration                    : 2 h 6 min
Bit rate mode               : Constant
Bit rate                    : 640 kb/s
Channel(s)                  : 6 channels
Channel positions           : Front: L C R, Side: L R, LFE
Sampling rate               : 48.0 kHz
Frame rate                  : 31.250 FPS (1536 spf)
Bit depth                   : 16 bits
Compression mode            : Lossy
Stream size                 : 579 MiB (7%)
Title                       : Deep Red (1975)-alE13_AC3
Language                    : Italian
Default                     : No
Forced                      : No

Audio #2
ID                          : 3
Format                      : AC-3
Format/Info                 : Audio Coding 3
Mode extension              : CM (complete main)
Format settings, Endianness : Big
Codec ID                    : A_AC3
Duration                    : 2 h 6 min
Bit rate mode               : Constant
Bit rate                    : 224 kb/s
Channel(s)                  : 2 channels
Channel positions           : Front: L R
Sampling rate               : 48.0 kHz
Frame rate                  : 31.250 FPS (1536 spf)
Bit depth                   : 16 bits
Compression mode            : Lossy
Stream size                 : 203 MiB (2%)
Title                       : Deep Red (1975)-alE13_AC3
Language                    : English
Default                     : No
Forced                      : No

Text #1
ID                          : 4
Format                      : UTF-8
Codec ID                    : S_TEXT/UTF8
Codec ID/Info               : UTF-8 Plain Text
Duration                    : 2 h 0 min
Bit rate                    : 40 b/s
Count of elements           : 948
Stream size                 : 36.0 KiB (0%)
Title                       : Deep Red (1975)-alE13
Language                    : English
Default                     : No
Forced                      : No

Text #2
ID                          : 5
Format                      : UTF-8
Codec ID                    : S_TEXT/UTF8
Codec ID/Info               : UTF-8 Plain Text
Duration                    : 2 h 0 min
Bit rate                    : 42 b/s
Count of elements           : 948
Stream size                 : 37.6 KiB (0%)
Title                       : Deep Red (1975)-alE13
Language                    : Polish
Default                     : Yes
Forced                      : No

Menu
00:00:00.000                : en:00:00:00.000
00:10:41.140                : en:00:10:41.140
00:21:14.690                : en:00:21:14.690
00:31:08.533                : en:00:31:08.533
00:39:58.938                : en:00:39:58.938
00:52:54.004                : en:00:52:54.004
01:05:27.340                : en:01:05:27.340
01:13:39.040                : en:01:13:39.040
01:20:57.394                : en:01:20:57.394
01:33:48.289                : en:01:33:48.289
01:52:17.189                : en:01:52:17.189
02:04:42.141                : en:02:04:42.141
Podobne torrenty
[DivX - XviD] Głęboka Czerwień - Profondo rosso *1975* [DVDRip.DivX] [Napisy PL]
[RMVB] Głęboka Czerwień - Profondo Rosso *1975* [DVDRip.RMVB-ZG] [Napisy PL]
[HDTV-HD] 3 Dni Kondora-3 Days Of The Condor (1975)[BRRip 1080p by alE13 AC3/DTS][Lektor i Napisy PL/Eng][Eng]
[ 3D] Doktor Strange-Doctor Strange (IMAX Edition) 3D (2016)-alE13[BDRip 1080p x264 by alE13 AC3][Dubbing i Napisy PL][Eng]
[HDTV-HD] Wilcze Szczenię-Urufu gai: Moero ôkami-otoko (1975)[BRRip 1080p x264 by alE13 AC3/FLAC][Napisy PL/Eng][Japanese]
[HDTV-HD] Księgowy-Accountant (2016)[BDRip 1080p by alE13 DTS/AC3[Napisy PL/Eng][Eng]
[HDTV-HD] Zderzenie-Collide (2016)[BDRip 1080p by alE13 DTS/AC3[Napisy PL/Eng][Eng]
[HDTV-HD] Być albo nie być-To Be or Not to Be (1983)[BDRip 1080p by alE13 AC3/DTS][Lektor i Napisy PL/Eng][Eng]
[HDTV-HD] Sprzymierzeni-Allied (2016)[BDRip 1080p by alE13 AC3/DTS][Napisy PL/Eng][Eng]
[HDTV-HD] U-571 (2000)[BDRip 1080p x264 by alE13 AC3/DTS][Lektor i Napisy PL/Eng][Eng]
Szczegóły torrenta
Trackerhttp://auratorrent.pl:8089/announce
Multitracker http://auratorrent.pl:8089/announce
http://pow7.com:80/announce
http://pow7.com/announce
http://tracker.tfile.me/announce
http://retracker.omsk.ru:2710/announce
http://mgtracker.org:2710/announce
udp://tracker.leechers-paradise.org:6969/announce
http://mgtracker.org:2710/announce
http://pow7.com:80/announce
http://pow7.com/announce
http://tracker.torrentyorg.pl/announce
udp://inferno.demonoid.ooo:3392/announce
udp://inferno.demonoid.pw:3393/announce
udp://tracker.coppersurfer.tk:6969/announce

Kategoria:Filmy » HDTV-HD
Dodane29/12/2016 07:12:19
Ostatnie Uaktualnienie29/12/2016 07:30:19
Pokaż/Ukryj pliki:
39 plików
NIKT JESZCZE NIE DODAŁ KOMENTARZA

DODAJ KOMENTARZ
Więcej Emoticon



Wstecz

Żaden z opisanych na stronie plików nie jest przetrzymywany na serwerze. Administrator strony immortaltorrent.pl nie może ponieść konsekwencji prawnych za to co użytkownicy zamieszczają lub piszą na stronie.
Nie możesz używać tego serwisu do rozpowszechniania lub ściągania materiałów do których nie masz odpowiednich praw lub licencji. Użytkownicy zobowiązani są do przestrzeganie tych zasad.
Rejestracja konta jest jednoznaczna z akceptacją zasad.

2017 © immortaltorrent.pl


Najlepsze strony Torrentowe