Torrentów: 137997      Ranga: Gość               Stwórz konto Odzyskiwanie hasła


Kategorie
Filmy
 ⇒ DivX - XviD
 ⇒ RMVB
 ⇒ DVD-R
 ⇒ TV + Seriale
 ⇒ HDTV-HD
 ⇒ VCD - SVCD
 ⇒ x 264
 ⇒  3D
Gry
 ⇒ Gry PC
 ⇒ Gry Konsole
 ⇒ xbox360
Muzyka
 ⇒ Muzyka
 ⇒ Teledyski/Koncerty
Książki - Komiksy
 ⇒ E-Booki + Audio
 ⇒ Komiksy
Inne
 ⇒ XXX
 ⇒ Dla Dzieci
 ⇒ Sport
 ⇒ Pozostałe - Różne
 ⇒ Manga - Anime
 ⇒ GSM - PDA
Aplikacje
 ⇒ Windows
 ⇒ Linux + Macintosh



Detale torrenta

Nocny Kowboj-Midnight Cowboy (1969)[BRRip 1080p x264 by alE13 AC3/DTS][Lektor i Napisy PL][Eng]
Kondycja:
Dodane: 08/09/2017
Rozmiar: 8.97 GB
Uploader: alE13

seed(ów): 1
leecher(ów): 0
Pobrane: 0





Ocena: N/A

[img]https://i.imgur.com/V46zeKP.jpg[/img]

http://www.imdb.com/title/tt0064665/
http://www.filmweb.pl/film/Nocny+kowboj-1969-8182

Audio DTS w osobnym pliku.
Plik zawiera Sample.


reżyseria: John Schlesinger
scenariusz: Waldo Salt
gatunek: Dramat
produkcja: USA
premiera: 25-05-1969
muzyka:         John Barry
zdjęcia:        Adam Holender
czas:           01:53:21

opis:

A naive hustler travels from Texas to New York to seek personal fortune but, in the process, finds
himself a new friend.

Joe Buck (Jon Voight) nie jest typem osoby posiadającej zbyt wiele talentów. Joe wierzy jednak,
że przynajmniej w jednym jest dobry: w dostarczaniu kobietom rozkoszy. Z tego tytułu wybiera się
w podróż do Nowego Jorku, gdzie, jak sądzi, zamożne, znudzone damy tylko czekają na kogoś takiego
jak on. Jego pewność siebie i naiwne przeświadczenie o własnych niezwykłych umiejętnościach zostaną
w jednej z największych metropolii świata skonfrontowane z brutalną rzeczywistością. Spłukany,
pozbawiony perspektywy zarobku Joe poznaje będącego, podobnie jak on, w beznadziejnej sytuacji
Enrico Rizzo (Dustin Hoffman), drobnego oszusta i cwaniaczka. Między tą dwójką życiowo nieprzystosowanych
rozbitków powoli, w miarę pogłębiającej się nędzy i upodlenia, zacznie zawiązywać się przyjaźń.

https://i.imgur.com/V0eVCOf.jpg
https://i.imgur.com/16Ck36o.jpg
https://i.imgur.com/aw8RhyF.jpg
https://i.imgur.com/WU78ay7.jpg

obsada:

Dustin Hoffman, Jon Voight, Sylvia Miles

dane techniczne:

audio:

Midnight Cowboy (1969)-alE13_DTS.mka

Hash: 9E5C2C2128090A12
Format: Matroska
Czas: 01:53:21.217
Rozmiar: 1.20 GiB (1285359263)

Audio (0):
Kodek:         (DTS) DTS
Format:       DTS
Kanały:       6 channels
BitRate:       1 509 kb/s
Tytuł:         Midnight Cowboy (1969)-alE13_DTS
Język:       English

video:

Midnight Cowboy (1969)-alE13.mkv
Format                      : Matroska
Format version              : Version 4 / Version 2
File size                   : 7.73 GiB
Duration                    : 1 h 53 min
Overall bit rate            : 9 757 kb/s
Movie name                  : Midnight Cowboy (1969)-alE13
Encoded date                : UTC 2017-09-07 08:22:06
Writing application         : mkvmerge v8.1.0 ('Psychedelic Postcard') 64bit
Writing library             : libebml v1.3.1 + libmatroska v1.4.2
Cover                       : Yes
Attachments                 : Cover.jpg / Cover.jpg

Video
ID                          : 1
Format                      : AVC
Format/Info                 : Advanced Video Codec
Format profile              : High@L4.1
Format settings, CABAC      : Yes
Format settings, RefFrames  : 2 frames
Codec ID                    : V_MPEG4/ISO/AVC
Duration                    : 1 h 53 min
Bit rate                    : 9 145 kb/s
Width                       : 1 920 pixels
Height                      : 1 040 pixels
Display aspect ratio        : 1.85:1
Frame rate mode             : Constant
Frame rate                  : 23.976 (24000/1001) FPS
Color space                 : YUV
Chroma subsampling          : 4:2:0
Bit depth                   : 8 bits
Scan type                   : Progressive
Bits/(Pixel*Frame)          : 0.191
Stream size                 : 7.16 GiB (93%)
Title                       : Midnight Cowboy (1969)-alE13
Writing library             : x264 core 142
Default                     : Yes
Forced                      : No
Color range                 : Limited
Color primaries             : BT.709
Transfer characteristics    : BT.709
Matrix coefficients         : BT.709

Audio #1
ID                          : 2
Format                      : AC-3
Format/Info                 : Audio Coding 3
Format settings, Endianness : Big
Codec ID                    : A_AC3
Duration                    : 1 h 53 min
Bit rate mode               : Constant
Bit rate                    : 448 kb/s
Channel(s)                  : 6 channels
Channel positions           : Front: L C R, Side: L R, LFE
Sampling rate               : 48.0 kHz
Frame rate                  : 31.250 FPS (1536 SPF)
Bit depth                   : 16 bits
Compression mode            : Lossy
Stream size                 : 363 MiB (5%)
Title                       : Midnight Cowboy (1969)-alE13_AC3
Language                    : English
Service kind                : Complete Main
Default                     : No
Forced                      : No

Audio #2
ID                          : 3
Format                      : AC-3
Format/Info                 : Audio Coding 3
Format settings, Endianness : Big
Codec ID                    : A_AC3
Duration                    : 1 h 53 min
Bit rate mode               : Constant
Bit rate                    : 256 kb/s
Channel(s)                  : 2 channels
Channel positions           : Front: L R
Sampling rate               : 48.0 kHz
Frame rate                  : 31.250 FPS (1536 SPF)
Bit depth                   : 16 bits
Compression mode            : Lossy
Delay relative to video     : 4 s 450 ms
Stream size                 : 207 MiB (3%)
Title                       : Midnight Cowboy (1969)-alE13_AC3
Language                    : Polish
Service kind                : Complete Main
Default                     : Yes
Forced                      : No

Text #1
ID                          : 4
Format                      : UTF-8
Codec ID                    : S_TEXT/UTF8
Codec ID/Info               : UTF-8 Plain Text
Duration                    : 1 h 49 min
Bit rate                    : 41 b/s
Count of elements           : 833
Stream size                 : 33.5 KiB (0%)
Title                       : Midnight Cowboy (1969)-alE13
Language                    : Polish
Default                     : No
Forced                      : No

Text #2
ID                          : 5
Format                      : UTF-8
Codec ID                    : S_TEXT/UTF8
Codec ID/Info               : UTF-8 Plain Text
Duration                    : 1 h 50 min
Bit rate                    : 61 b/s
Count of elements           : 1375
Stream size                 : 49.8 KiB (0%)
Title                       : Midnight Cowboy (1969)-alE13
Default                     : No
Forced                      : No

Menu
00:00:00.000                : en:Chapter 01
00:03:54.275                : en:Chapter 02
00:12:44.388                : en:Chapter 03
00:18:27.731                : en:Chapter 04
00:24:59.497                : en:Chapter 05
00:27:40.075                : en:Chapter 06
00:29:45.200                : en:Chapter 07
00:35:42.265                : en:Chapter 08
00:40:27.007                : en:Chapter 09
00:45:00.698                : en:Chapter 10
00:49:57.411                : en:Chapter 11
00:51:31.379                : en:Chapter 12
00:54:57.585                : en:Chapter 13
00:59:21.391                : en:Chapter 14
01:02:55.123                : en:Chapter 15
01:04:56.077                : en:Chapter 16
01:07:28.188                : en:Chapter 17
01:10:30.787                : en:Chapter 18
01:13:53.698                : en:Chapter 19
01:18:16.627                : en:Chapter 20
01:24:52.773                : en:Chapter 21
01:28:48.842                : en:Chapter 22
01:30:43.915                : en:Chapter 23
01:33:34.210                : en:Chapter 24
01:34:52.288                : en:Chapter 25
01:38:27.253                : en:Chapter 26
01:42:33.624                : en:Chapter 27
01:46:20.393                : en:Chapter 28
Podobne torrenty
[HDTV-HD] 100 Karabinów-100 Rifles (1969) [BRRip 1080p x264 by alE13 AAC/DTS][Lektor i Napisy PL/Eng][Eng]
[HDTV-HD] Złoto Mackenny-Mackenna\'s Gold (1969)[BRRip 1080p x264 by alE13 AC3][Lektor i Napisy PL/Eng][Eng]
[HDTV-HD] Miasto Aniołów-City of Angels (1998)-alE13[BRRip 1080p x264 by alE13 AC3/DTS][Lektor i Napisy PL/Eng][Eng]
[HDTV-HD] Barwy Nocy-Color of night (Director\'s Cut) (1994)-alE13[BRRip 1080p x264 by alE13 AC3][Lektor i Napisy PL/Eng][Eng]
[Teledyski/Koncerty] Jimi Hendrix: Live at Woodstock (1969)[BRRip 1080p x264 by alE13 DTS][Multi Subtitles][Eng]
[HDTV-HD] Szybcy i wściekli 8-The Fate of the Furious (2017)-alE13[BRRip 1080p x264 by alE13 AC3/DTS]Napisy PL/Eng][Eng]
[HDTV-HD] Bez wyjścia-No Way Out (1987)[BRRip 1080p x264 by alE13 AC3][Lektor i Napisy PL/Eng][Eng]
[HDTV-HD] Coś-The Thing (1982)[BRRip 1080p x264 by alE13 AC3][Lektor i Napisy PL/Eng][Eng]
[HDTV-HD] Gladiator(2000)[BRRip 1080p x264 by alE13 AC3][Lektor i Napisy PL/Eng][Eng]
[HDTV-HD] Centurion (2010)[BRRip 1080p x264 by alE13 DTS/AC3][Lektor i Napisy PL/Eng][Eng]
Szczegóły torrenta
Trackerhttp://tracker.devil-torrents.pl/announce
Multitracker http://tracker.devil-torrents.pl/announce
http://tracker.torrentyorg.pl/announce
udp://tracker.opentrackr.org:1337/announce
udp://tracker.leechers-paradise.org:6969/announce
udp://tracker.ilibr.org:80/announce
udp://tracker.coppersurfer.tk:6969/announce
udp://p4p.arenabg.ch:1337/announce
udp://inferno.demonoid.pw:3391/announce

Kategoria:Filmy » HDTV-HD
Dodane08/09/2017 10:09:59
Ostatnie Uaktualnienie08/09/2017 10:44:59
Pokaż/Ukryj pliki:
18 plików
NIKT JESZCZE NIE DODAŁ KOMENTARZA

DODAJ KOMENTARZ
Więcej Emoticon



Wstecz

Żaden z opisanych na stronie plików nie jest przetrzymywany na serwerze. Administrator strony immortaltorrent.pl nie może ponieść konsekwencji prawnych za to co użytkownicy zamieszczają lub piszą na stronie.
Nie możesz używać tego serwisu do rozpowszechniania lub ściągania materiałów do których nie masz odpowiednich praw lub licencji. Użytkownicy zobowiązani są do przestrzeganie tych zasad.
Rejestracja konta jest jednoznaczna z akceptacją zasad.

2017 © immortaltorrent.pl


Najlepsze strony Torrentowe