Torrentów: 137212      Ranga: Gość               Stwórz konto Odzyskiwanie hasła


Kategorie
Filmy
 ⇒ DivX - XviD
 ⇒ RMVB
 ⇒ DVD-R
 ⇒ TV + Seriale
 ⇒ HDTV-HD
 ⇒ VCD - SVCD
 ⇒ x 264
 ⇒  3D
Gry
 ⇒ Gry PC
 ⇒ Gry Konsole
 ⇒ xbox360
Muzyka
 ⇒ Muzyka
 ⇒ Teledyski/Koncerty
Książki - Komiksy
 ⇒ E-Booki + Audio
 ⇒ Komiksy
Inne
 ⇒ XXX
 ⇒ Dla Dzieci
 ⇒ Sport
 ⇒ Pozostałe - Różne
 ⇒ Manga - Anime
 ⇒ GSM - PDA
Aplikacje
 ⇒ Windows
 ⇒ Linux + Macintosh



Detale torrenta

ANT-MAN 2015 [READNFO] [CAM] [XVID-MRG] [ENG]
Kondycja:
Dodane: 20/07/2015
Rozmiar: 866.10 MB
Uploader: Anonimowy

seed(ów): 36
leecher(ów): 1
Pobrane: 821





Ocena: N/A

.:: INFO ::.

Produkcja: USA, Wielka Brytania
Gatunek: Akcja, Sci-Fi
Czas trwania: 94 min.
Premiera: 17.07.2015- Polska, 29.06.2015 (świat)
Reżyseria: Peyton Reed
Scenariusz: Adam McKay, Paul Rudd, Edgar Wright, Joe Cornish

.:: O Filmie ::.

FILMWEB : http://filmweb.pl/film/Ant-Man-2015-257691
IMDb : http://imdb.com/title/tt0478970/?ref_=fn_al_tt_1
https://www.youtube.com/watch?v=g0fSEa5o68Q

.:: OPIS ::.

Oszust Scott Lang, wyposażony w kombinezon pozwalający na zmniejszanie się, pomaga swojemu mentorowi, Hankowi, zaplanować i wykonać skok, od którego zależą losy świata.

.:: OBSADA ::.

Paul Rudd ... Scott Lang / Ant-Man
Michael Douglas ... Dr. Hank Pym
Evangeline Lilly ... Hope van Dyne
Corey Stoll ... Darren Cross / Yellowjacket
Bobby Cannavale ... Paxton

.:: DANE TECHNICZNE ::.

Format : AVI
Format/Info : Audio Video Interleave
File size : 866 MiB
Duration : 1h 34mn
Overall bit rate : 1 288 Kbps

Video
ID : 0
Format : MPEG-4 Visual
Format profile : Simple@L3
Format settings, BVOP : No
Format settings, QPel : No
Format settings, GMC : No warppoints
Format settings, Matrix : Default (H.263)
Codec ID : XVID
Codec ID/Hint : XviD
Duration : 1h 34mn
Bit rate : 1 051 Kbps
Width : 640 pixels
Height : 320 pixels
Display aspect ratio : 2.000
Frame rate : 23.976 fps
Color space : YUV
Chroma subsampling : 4:2:0
Bit depth : 8 bits
Scan type : Progressive
Compression mode : Lossy
Bits/(Pixel*Frame) : 0.214
Stream size : 707 MiB (82%)
Writing library : XviD

Audio
ID : 1
Format : MPEG Audio
Format version : Version 1
Format profile : Layer 3
Mode : Joint stereo
Mode extension : MS Stereo
Codec ID : 55
Codec ID/Hint : MP3
Duration : 54mn 6s
Source duration : 2h 44mn
Bit rate mode : Constant
Bit rate : 224 Kbps
Channel(s) : 2 channels
Sampling rate : 48.0 KHz
Compression mode : Lossy
Stream size : 151 MiB (17%)
Alignment : Aligned on interleaves
Interleave, duration : 24 ms (0.58 video frame)
Podobne torrenty
[DivX - XviD] Tracers 2015 [READNFO] [DVDrip XviD-AQOS] [ENG] + Sample
[DivX - XviD] Szybcy i wściekli 7 - Fast and Furious 7 2015 [HQCAM] [READNFO] [XVID MP3] [MURD3R] [ENG]
[DivX - XviD] The Chronicles of Narnia: Prince Caspian *2008* [TS.XViD.READNFO-READNFO-mVs]
[DivX - XviD] Deception [2008] [CAM.READNFO.XViD]
[DivX - XviD] The.Orphanage.2007.READNFO.DVDRiP.XViD-iKA
[DivX - XviD] Rec *2007* [READNFO.DVDRiP.XViD] [Napisy PL]
[DivX - XviD] Untraceable 2007 DVDScR READNFO XViD-nDn
[DivX - XviD] The Forbidden Kingdom DVDRip.READNFO.XviD]
[DivX - XviD] Kobiety - The Women *2008* [TS.READNFO.XviD]
[DivX - XviD] Guvllivers Travels *2010* [CAM.READNFO.XviD]
Szczegóły torrenta
Trackerhttp://tracker.torrenty.org:6969/announce
Multitracker http://tracker.torrenty.org:6969/announce
http://tracker.filetracker.pl:8089/announce
udp://open.demonii.com:1337/announce
http://94.228.192.98/announce
http://www.tlv.cc:7777/announce
http://retracker.omsk.ru:2710/announce
udp://tracker.prq.to/announce
udp://tracker.leechers-paradise.org:6969/announce
udp://tracker.openbittorrent.com:80/announce
udp://tracker.publicbt.com:80/announce
udp://ipv4.tracker.harry.lu:80/announce
udp://tracker.publicbt.com/announce
udp://shadowshq.eddie4.nl:6969/announce
udp://9.rarbg.com:2710/announce
udp://11.rarbg.com:80/announce
udp://10.rarbg.com/announce
udp://tracker.istole.it:80/announce
udp://exodus.desync.com:6969

Kategoria:Filmy » DivX - XviD
Dodane20/07/2015 08:07:19
Ostatnie Uaktualnienie03/08/2015 15:42:18
Pokaż/Ukryj pliki:
4 plików
NIKT JESZCZE NIE DODAŁ KOMENTARZA

DODAJ KOMENTARZ
Więcej Emoticon



Wstecz

Żaden z opisanych na stronie plików nie jest przetrzymywany na serwerze. Administrator strony immortaltorrent.pl nie może ponieść konsekwencji prawnych za to co użytkownicy zamieszczają lub piszą na stronie.
Nie możesz używać tego serwisu do rozpowszechniania lub ściągania materiałów do których nie masz odpowiednich praw lub licencji. Użytkownicy zobowiązani są do przestrzeganie tych zasad.
Rejestracja konta jest jednoznaczna z akceptacją zasad.

2017 © immortaltorrent.pl


Najlepsze strony Torrentowe