Torrentów: 134370      Ranga: Gość               Stwórz konto Odzyskiwanie hasła


Kategorie
Filmy
 ⇒ DivX - XviD
 ⇒ RMVB
 ⇒ DVD-R
 ⇒ TV + Seriale
 ⇒ HDTV-HD
 ⇒ VCD - SVCD
 ⇒ x 264
 ⇒  3D
Gry
 ⇒ Gry PC
 ⇒ Gry Konsole
 ⇒ xbox360
Muzyka
 ⇒ Muzyka
 ⇒ Teledyski/Koncerty
Książki - Komiksy
 ⇒ E-Booki + Audio
 ⇒ Komiksy
Inne
 ⇒ XXX
 ⇒ Dla Dzieci
 ⇒ Sport
 ⇒ Pozostałe - Różne
 ⇒ Manga - Anime
 ⇒ GSM - PDA
Aplikacje
 ⇒ Windows
 ⇒ Linux + Macintosh



Detale torrenta

Avatar (2009) [720p] [BDRip] [XviD-torentup] [AC3] [Lektor PL]
Kondycja:
Dodane: 16/10/2015
Rozmiar: 4.95 GB
Uploader: torentup

seed(ów): 9
leecher(ów): 5
Pobrane: 17





Ocena: N/A

Avatar (2009) [720p] [BDRip] [XviD-torentup] [AC3] [Lektor PL]

...( Info )...


*   Oryginalny tytuł: .......... Avatar
*   Polski tytuł: .......... Avatar
*   Produkcja: .......... USA, Wielka Brytania
*   Data premiery: .......... 25 grudnia 2009  (Polska)  10 grudnia 2009  (świat)
*   Gatunek: .......... Sci-Fi
*   Reżyseria: .......... James Cameron
*   Scenariusz: .......... James Cameron
*   Czas trwania: .......... 2 godz. 42 min.
*   Filmweb: .......... 7,4/10  from  596 594 users
*   IMDB: .......... Ratings: 7,9/10 from 816 756 users  

*   http://www.filmweb.pl/Avatar
*   http://www.imdb.com/title/tt0499549/
*   https://www.youtube.com/watch?v=d1_JBMrrYw8

...( Opis )...

Długo oczekiwany film Jamesa Camerona zrealizowany z wielkim rozmachem porównywalnym do "Titanica". Szacowany budżet na poziomie 237 milionów dolarów daje mu trzecie miejsce pod tym względem w historii kina. "Avatar" został wykonany w dwóch technikach: tradycyjnej 2D i zupełnie nowej technice 3D. Zdjęcia do filmu zostały wykonane w 2007 roku, natomiast na postprodukcję przeznaczono dwa lata. "Avatar" opowiada historię sparaliżowanego byłego komandosa, który dostaje szansę odzyskaniaa zdrowego ciała. Musi jednak wziąć udział w specjalnym programie militarnym o nazwie Avatar.

...( Obsada )...

*   Sam Worthington ......... Jake Sully
*   Zoe Saldana ......... Neytiri
*   Sigourney Weaver ......... Dr Grace Augustine
*   Stephen Lang ......... Pułkownik Miles Quaritch
*   Michelle Rodriguez ......... Trudy Chacon
*   Giovanni Ribisi ......... Parker Selfridge
*   Joel David Moore ......... Norm Spellman
*   CCH Pounder ......... Moat

...( Dane Techniczne )...

Format                         : AVI
Format/Info                    : Audio Video Interleave
Format profile                 : OpenDML
File size                      : 4.95 GiB
Duration                       : 2h 41mn
Overall bit rate               : 4 383 Kbps
Writing application            : VirtualDubMod 1.5.10.2 (build 2542/release)
Writing library                : VirtualDubMod build 2542/release

Video
ID                             : 0
Format                         : MPEG-4 Visual
Format profile                 : Advanced Simple@L5
Format settings, BVOP          : Yes
Format settings, QPel          : No
Format settings, GMC           : No warppoints
Format settings, Matrix        : Custom
Codec ID                       : XVID
Codec ID/Hint                  : XviD
Duration                       : 2h 41mn
Bit rate                       : 3 926 Kbps
Width                          : 1 280 pixels
Height                         : 720 pixels
Display aspect ratio           : 16:9
Frame rate                     : 23.976 fps
Color space                    : YUV
Chroma subsampling             : 4:2:0
Bit depth                      : 8 bits
Scan type                      : Progressive
Compression mode               : Lossy
Bits/(Pixel*Frame)             : 0.178
Stream size                    : 4.43 GiB (90%)
Writing library                : XviD 64

Audio
ID                             : 1
Format                         : AC-3
Format/Info                    : Audio Coding 3
Mode extension                 : CM (complete main)
Format settings, Endianness    : Big
Codec ID                       : 2000
Duration                       : 2h 41mn
Bit rate mode                  : Constant
Bit rate                       : 448 Kbps
Channel(s)                     : 6 channels
Channel positions              : Front: L C R, Side: L R, LFE
Sampling rate                  : 48.0 KHz
Bit depth                      : 16 bits
Compression mode               : Lossy
Stream size                    : 518 MiB (10%)
Alignment                      : Split accross interleaves
Interleave, duration           : 42 ms (1.00 video frame)
Interleave, preload duration   : 500 ms

Podobne torrenty
[DivX - XviD] Avatar *2009* [720p] [BDRip] [XviD] [AC3-ELiTE] [Lektor PL]
[DivX - XviD] Avatar*2009*[720p.BRRip.XviD.AC3-LTN][Lektor PL]
[ 3D] Avatar 3D(OU) Rozszerzone wydanie kolekcjonerskie - Avatar Extended Collectors Cut *2009*[1080p.Half.Over-Under.DTS-HD MA.5.1.AC3.BluRay.x264-SONDA] [Lektor i Napisy PL]
[DivX - XviD] 22 Jump Street (2014) [BDRip] [XviD-torentup] [Lektor PL]
[DivX - XviD] Czas na milosc - About Time (2013) [BDRip] [XviD-torentup] [Lektor PL]
[DivX - XviD] Świt - Daybreakers *2009* [720p.BDRip.XviD.AC3-ELiTE] [Lektor PL]
[DivX - XviD] Fantastic Mr Fox *2009* [720p] [BDRip] [XviD-ELiTE] [marcinc33] [Lektor PL]
[DivX - XviD] Gliniarze Z Brooklynu - Brooklyns Finest *2009* [720p] [BDRip] [XviD-ELiTE] [LEKTOR PL] [dabrjarek]
[DivX - XviD] Avatar *2009* [DVDRip.XViD] [Lektor PL]
[DivX - XviD] Avatar (2009) [BRRip.XviD] [Lektor PL]
Szczegóły torrenta
Trackerhttp://tracker.filetracker.pl:8089/announce
Multitracker http://tracker.filetracker.pl:8089/announce
http://tracker.free-torrents.pl/announce
http://tracker.streettorrent.pl:80/announce
http://tracker.torrenty.org:6969/announce
http://tracker.aletorrenty.pl:2710/announce
http://tracker.pubt.net:2710/announce
http://94.228.192.98/announce
http://www.tlv.cc:7777/announce
http://tracker.torrenty.org:6969/announce
http://retracker.omsk.ru:2710/announce
http://tracker.immortaltorrent.pl/announce
udp://open.demonii.com:1337/announce
http://tracker.best-torrents.net:6969/announce
udp://torrent.gresille.org:80/announce
udp://9.rarbg.me:2710/announce
udp://eddie4.nl:6969/announce
udp://tracker.leechers-paradise.org:6969/announce
udp://tracker4.piratux.com:6969/announce
udp://www.eddie4.nl:6969/announce
udp://open.demonii.com:1337/announce
udp://tracker.openbittorrent.com:80/announce
udp://tracker.publicbt.com:80/announce
udp://ipv4.tracker.harry.lu:80/announce
udp://tracker.publicbt.com/announce
udp://shadowshq.eddie4.nl:6969/announce
udp://9.rarbg.com:2710/announce
udp://11.rarbg.com:80/announce
udp://10.rarbg.com/announce
udp://tracker.istole.it:80/announce
udp://exodus.desync.com:6969
udp://open.demonii.com:1337/announce
udp://tracker.prq.to/announce

Kategoria:Filmy » DivX - XviD
Dodane16/10/2015 19:10:34
Ostatnie Uaktualnienie18/10/2015 21:17:36
Pokaż/Ukryj pliki:
5 plików
NIKT JESZCZE NIE DODAŁ KOMENTARZA

DODAJ KOMENTARZ
Więcej Emoticon



Wstecz

Żaden z opisanych na stronie plików nie jest przetrzymywany na serwerze. Administrator strony immortaltorrent.pl nie może ponieść konsekwencji prawnych za to co użytkownicy zamieszczają lub piszą na stronie.
Nie możesz używać tego serwisu do rozpowszechniania lub ściągania materiałów do których nie masz odpowiednich praw lub licencji. Użytkownicy zobowiązani są do przestrzeganie tych zasad.
Rejestracja konta jest jednoznaczna z akceptacją zasad.

2017 © immortaltorrent.pl


Najlepsze strony Torrentowe