Torrentów: 136492      Ranga: Gość               Stwórz konto Odzyskiwanie hasła


Kategorie
Filmy
 ⇒ DivX - XviD
 ⇒ RMVB
 ⇒ DVD-R
 ⇒ TV + Seriale
 ⇒ HDTV-HD
 ⇒ VCD - SVCD
 ⇒ x 264
 ⇒  3D
Gry
 ⇒ Gry PC
 ⇒ Gry Konsole
 ⇒ xbox360
Muzyka
 ⇒ Muzyka
 ⇒ Teledyski/Koncerty
Książki - Komiksy
 ⇒ E-Booki + Audio
 ⇒ Komiksy
Inne
 ⇒ XXX
 ⇒ Dla Dzieci
 ⇒ Sport
 ⇒ Pozostałe - Różne
 ⇒ Manga - Anime
 ⇒ GSM - PDA
Aplikacje
 ⇒ Windows
 ⇒ Linux + Macintosh



Detale torrenta

Ostatni Sprawiedliwy - Last Man Standing (1996) [BRRip] [XviD-torentup] [Lektor PL]
Kondycja:
Dodane: 07/01/2017
Rozmiar: 699.75 MB
Uploader: torentup

seed(ów): 53
leecher(ów): 12
Pobrane: 124





Ocena: N/A

=====================
INFO
================

Produkcja: USA
Gatunek: Gangsterski
Premiera: 24 stycznia 1997 (Polska), 20 września 1996 (świat)
Reżyseria: Walter Hill
Scenariusz: Walter Hill

=====================
OPIS
====================
USA, czasy wielkiego kryzysu. Do teksaskiego miasteczka Jerycho, w którym rządzą dwa gangi, przybywa John Smith. Gdy przestępcy demolują mu samochód, postanawia zostać dłużej. Zatrudnia się jako rewolwerowiec i pracuje raz dla jednej, raz dla drugiej bandy. Chce doprowadzić do tego, by grupy zniszczyły się nawzajem.
=====================
OBSADA
====================
Bruce Willis ... John Smith
Bruce Dern ... Sheriff Ed Galt
Christopher Walken ... Hickey
Karina Lombard ... Felina
William Sanderson ... Joe Monday
Alexandra Powers ... Lucy Kolinski

=====================
DANE TECHNICZNE
=====================

Format                         : AVI
Format/Info                    : Audio Video Interleave
File size                      : 700 MiB
Duration                       : 1h 41mn
Overall bit rate               : 967 Kbps
Writing application            : VirtualDubMod 1.5.10.2 (build 2542/release)
Writing library                : VirtualDubMod build 2542/release

Video
ID                             : 0
Format                         : MPEG-4 Visual
Format profile                 : Advanced Simple@L5
Format settings, BVOP          : Yes
Format settings, QPel          : No
Format settings, GMC           : No warppoints
Format settings, Matrix        : Default (H.263)
Codec ID                       : XVID
Codec ID/Hint                  : XviD
Duration                       : 1h 41mn
Bit rate                       : 830 Kbps
Width                          : 640 pixels
Height                         : 272 pixels
Display aspect ratio           : 2.35:1
Frame rate                     : 23.976 fps
Color space                    : YUV
Chroma subsampling             : 4:2:0
Bit depth                      : 8 bits
Scan type                      : Progressive
Compression mode               : Lossy
Bits/(Pixel*Frame)             : 0.199
Stream size                    : 600 MiB (86%)
Writing library                : XviD 65

Audio
ID                             : 1
Format                         : MPEG Audio
Format version                 : Version 1
Format profile                 : Layer 3
Mode                           : Joint stereo
Mode extension                 : MS Stereo
Codec ID                       : 55
Codec ID/Hint                  : MP3
Duration                       : 1h 41mn
Bit rate mode                  : Constant
Bit rate                       : 128 Kbps
Channel(s)                     : 2 channels
Sampling rate                  : 48.0 KHz
Compression mode               : Lossy
Stream size                    : 92.6 MiB (13%)
Alignment                      : Aligned on interleaves
Interleave, duration           : 42 ms (1.00 video frame)
Interleave, preload duration   : 504 ms
Writing library                : LAME3.99.5
Podobne torrenty
[DivX - XviD] Ostatni Sprawiedliwy - Last Man Standing (1996) [BRRip] [XviD-torentup] [Lektor PL]
[DivX - XviD] Ostatni sprawiedliwy - Last Man Standing *1996* [DVDRip] [Lektor PL]
[RMVB] Ostatni sprawiedliwy - Last Man Standing *1996* [DVDRip.RMVB] [Lektor PL]
[DivX - XviD] Ostatni twardziel - Last Man Standing *1996* [DVDRip.XviD] [AC3] [Lektor PL]
[DivX - XviD] Ostatni Smok -Dragonheart (1996) [DVDRip][Xvid-torentup][Lektor PL]
[DivX - XviD] Ostatni smok - DragonHeart *1996* [AC3] [DVDRip] [XviD-KiT] [Lektor PL]
[DivX - XviD] Ostatni Smok 1-2 - DragonHeart 1-2 *1996-2000* [DVDRip.XviD] [Lektor PL]
[DivX - XviD] Stretch (2014) [BRRip][XviD-torentup] [Lektor PL]
[x 264] Ostatni Smok - DragonHeart *1996* [mini-HD.1080p.AAC.BluRay.x264] [Lektor PL]
[DivX - XviD] Gamoń Le Corniaud (1965) [AC3][BRRip][XviD-torentup] [Lektor PL]
Szczegóły torrenta
Trackerhttp://tracker.filetracker.pl:8089/announce
Multitracker http://tracker.filetracker.pl:8089/announce
http://tracker.free-torrents.pl/announce
http://tracker.streettorrent.pl:80/announce
http://tracker.torrenty.org:6969/announce
http://tracker.aletorrenty.pl:2710/announce
http://tracker.pubt.net:2710/announce
http://94.228.192.98/announce
http://www.tlv.cc:7777/announce
http://retracker.omsk.ru:2710/announce
http://tracker.immortaltorrent.pl/announce
udp://open.demonii.com:1337/announce
http://tracker.best-torrents.net:6969/announce
udp://torrent.gresille.org:80/announce
udp://9.rarbg.me:2710/announce
udp://eddie4.nl:6969/announce
udp://tracker.leechers-paradise.org:6969/announce
udp://tracker4.piratux.com:6969/announce
udp://www.eddie4.nl:6969/announce
udp://tracker.openbittorrent.com:80/announce
udp://tracker.publicbt.com:80/announce
udp://ipv4.tracker.harry.lu:80/announce
udp://tracker.publicbt.com/announce
udp://shadowshq.eddie4.nl:6969/announce
udp://9.rarbg.com:2710/announce
udp://11.rarbg.com:80/announce
udp://10.rarbg.com/announce
udp://tracker.istole.it:80/announce
udp://exodus.desync.com:6969
udp://tracker.prq.to/announce
udp://tracker.openbittorrent.com:80/announce
udp://tracker.publicbt.com:80/announce

Kategoria:Filmy » DivX - XviD
Dodane07/01/2017 20:01:42
Ostatnie Uaktualnienie08/01/2017 17:38:59
Pokaż/Ukryj pliki:
3 plików
NIKT JESZCZE NIE DODAŁ KOMENTARZA

DODAJ KOMENTARZ
Więcej Emoticon



Wstecz

Żaden z opisanych na stronie plików nie jest przetrzymywany na serwerze. Administrator strony immortaltorrent.pl nie może ponieść konsekwencji prawnych za to co użytkownicy zamieszczają lub piszą na stronie.
Nie możesz używać tego serwisu do rozpowszechniania lub ściągania materiałów do których nie masz odpowiednich praw lub licencji. Użytkownicy zobowiązani są do przestrzeganie tych zasad.
Rejestracja konta jest jednoznaczna z akceptacją zasad.

2017 © immortaltorrent.pl


Najlepsze strony Torrentowe