Torrentów: 143342      Ranga: Gosc               Stwórz konto Odzyskiwanie hasła


Kategorie
Filmy
 ⇒ DivX - XviD
 ⇒ RMVB
 ⇒ DVD-R
 ⇒ TV + Seriale
 ⇒ HDTV-HD
 ⇒ VCD - SVCD
 ⇒ x 264
 ⇒  3D
Gry
 ⇒ Gry PC
 ⇒ Gry Konsole
 ⇒ xbox360
Muzyka
 ⇒ Muzyka
 ⇒ Teledyski/Koncerty
Książki - Komiksy
 ⇒ E-Booki + Audio
 ⇒ Komiksy
Inne
 ⇒ XXX
 ⇒ Dla Dzieci
 ⇒ Sport
 ⇒ Pozostałe - Różne
 ⇒ Manga - Anime
 ⇒ GSM - PDA
Aplikacje
 ⇒ Windows
 ⇒ Linux + Macintosh



Detale torrenta

The Losers [DVDSCR.XViD]
Kondycja:
Dodane: 05/05/2010
Rozmiar: 1.52 GB
Uploader: Anonimowy
seed(ów): 619
leecher(ów): 176
Pobrane: 10





Ocena: N/A


Ripper ...........: IMAGiNE
IMDB Rating.......:6.9/10                          
Video Codec.......: XVID
Release Date......:04/05/10
Audio Codec.......:AC-3
Theatre Date......:23/04/10
Audio Bitrate.....:256
Runtime.......:1h 32mn
Subtitles.........:ENG when needed
Language..........:ENGLISH
Resolution...... 720 x 304
IMDb URL..........:http://www.imdb.com/title/tt0480255/


DETAILS:

Video
Format                           : MPEG-4 Visual
Format profile                   : Streaming Video@L1
Format settings, BVOP            : Yes
Format settings, QPel            : No
Format settings, GMC             : No warppoints
Format settings, Matrix          : Default
Muxing mode                      : Packed bitstream
Codec ID                         : XVID
Codec ID/Hint                    : XviD
Duration                         : 1h 36mn
Bit rate                         : 1 958 Kbps
Width                            : 720 pixels
Height                           : 304 pixels
Display aspect ratio             : 2.35
Frame rate                       : 23.976 fps
Resolution                       : 24 bits
Colorimetry                      : 4:2:0
Scan type                        : Progressive
Bits/(Pixel*Frame)               : 0.373
Stream size                      : 1.33 GiB (88%)
Writing library                  : XviD 50

Audio
Format                           : AC-3
Format/Info                      : Audio Coding 3
Codec ID                         : 2000
Duration                         : 1h 36mn
Bit rate mode                    : Constant
Bit rate                         : 256 Kbps
Channel(s)                       : 2 channels
Channel positions                : L R
Sampling rate                    : 48.0 KHz
Stream size                      : 178 MiB (12%)
Alignment                        : Aligned on interleaves
Interleave, duration             : 42 ms (1.00 video frame)
Interleave, preload duration     : 512 ms

Screens:
http://i44.tinypic.com/jscd4x.jpg
http://i33.tinypic.com/1z6a79z.jpg  
http://i44.tinypic.com/4ugd3b.jpg


NOTES:

IMAGiNE bringing you another release.....The Losers DVDSCR
Well wouldn't you know it, as soon as we do a TS of the losers a DVDSCR was dumped
in our lap by our good friend MrFreestyle... Thanx bro
This turned out to be a very nice source so not much had been done other than a few tweaks
here and there. Audio is nice crisp studio audio.
Scanned through it and did not see any property of or anything like that, but i could have missed it.
Podobne torrenty
[DivX - XviD] Druyna Potpionych - The Losers *2010* [BrRip.XviD]
[DivX - XviD] Druyna Potpionych - The Losers *2010* [DVDRip.XviD] [Lektor PL]
[DivX - XviD] Druyna Potpionych - The Losers *2010* [DVDRip.XviD] [Lektor PL]
[DivX - XviD] Druyna Potpionych - The Losers *2010* [DVDRip.XviD] [Lektor PL]
[DivX - XviD] Druyna Potpionych - The Losers *2010* [DVDRip.XviD] [Lektor PL]
[RMVB] The Losers *2010* [DVDRip.RMVB] [Lektor PL]
[RMVB] Druyna Potpionych - The Losers (2010) [DVDRip.RMVB] [Lektor PL]
[HDTV-HD] Drużyna potępionych / The Losers (2010) [BDRip 1080p x264 by alE13 AC3/DTS][Lektor i Napisy PL/Eng][Eng]
[DivX - XviD] 1 Day *2009* [DVDSCR.XviD] [ENG]
[DivX - XviD] The Man Who Came Back [DVDSCR XViD]
Szczegóły torrenta
Trackerhttp://tracker.openbittorrent.com/announce
Kategoria:Filmy » DivX - XviD
Dodane05/05/2010 06:05:33
Ostatnie Uaktualnienie18/03/2013 14:21:28
NIKT JESZCZE NIE DODAŁ KOMENTARZA

DODAJ KOMENTARZ
Więcej Emoticon



Wstecz

Żaden z opisanych na stronie plików nie jest przetrzymywany na serwerze. Administrator strony immortaltorrent.pl nie może ponieść konsekwencji prawnych za to co użytkownicy zamieszczają lub piszą na stronie.
Nie możesz używać tego serwisu do rozpowszechniania lub ściągania materiałów do których nie masz odpowiednich praw lub licencji. Użytkownicy zobowiązani są do przestrzeganie tych zasad.
Rejestracja konta jest jednoznaczna z akceptacją zasad.

2018 © immortaltorrent.pl


Najlepsze strony Torrentowe