Torrentów: 144721      Ranga: Gosc               Stwórz konto Odzyskiwanie hasła


Kategorie
Filmy
 ⇒ DivX - XviD
 ⇒ RMVB
 ⇒ DVD-R
 ⇒ TV + Seriale
 ⇒ HDTV-HD
 ⇒ VCD - SVCD
 ⇒ x 264
 ⇒  3D
Gry
 ⇒ Gry PC
 ⇒ Gry Konsole
 ⇒ xbox360
Muzyka
 ⇒ Muzyka
 ⇒ Teledyski/Koncerty
Książki - Komiksy
 ⇒ E-Booki + Audio
 ⇒ Komiksy
Inne
 ⇒ XXX
 ⇒ Dla Dzieci
 ⇒ Sport
 ⇒ Pozostałe - Różne
 ⇒ Manga - Anime
 ⇒ GSM - PDA
Aplikacje
 ⇒ Windows
 ⇒ Linux + Macintosh



Detale torrenta

50 cent - Just A Litlle
Kondycja:
Dodane: 25/03/2010
Rozmiar: 43.51 MB
Uploader: Anonimowy
seed(ów): 0
leecher(ów): 0
Pobrane: 375





Ocena: N/A

General :-

Complete name                    : 50 cent Just A Little- By Sandy.DAT
Format                           : CDXA/MPEG-PS
File size                        : 43.3 MiB
Duration                         : 4mn 17s
Overall bit rate                 : 1 412 Kbps
Writing library                  : MPEG12_RT_BS_RF1

Video :-

ID                               : 224 (0xE0)
Format                           : MPEG Video
Format version                   : Version 1
Format settings, BVOP            : Yes
Format settings, Matrix          : Default
Duration                         : 4mn 17s
Bit rate mode                    : Constant
Bit rate                         : 1 132 Kbps
Nominal bit rate                 : 1 150 Kbps
Width                            : 352 pixels
Height                           : 240 pixels
Display aspect ratio             : 4:3
Frame rate                       : 29.970 fps
Resolution                       : 8 bits
Scan type                        : Progressive
Bits/(Pixel*Frame)               : 0.447
Stream size                      : 34.7 MiB (80%)
Writing library                  : MPEG12_RT_BS_RF1

Audio :-

ID                               : 192 (0xC0)
Format                           : MPEG Audio
Format version                   : Version 1
Format profile                   : Layer 2
Duration                         : 4mn 17s
Bit rate mode                    : Constant
Bit rate                         : 224 Kbps
Channel(s)                       : 2 channels
Sampling rate                    : 44.1 KHz
Video delay                      : -7ms
Stream size                      : 6.87 MiB (16%)

http://i43.tinypic.com/suy92e.jpg
Podobne torrenty
[Muzyka] 50 Cent
[Teledyski/Koncerty] 50 cent - Many Men [avi]
[Muzyka] 50 Cent - Time is now
[Muzyka] 50 CENT - This Is 50 (2008) [mp3@256]
[Teledyski/Koncerty] 50 cent - in da club
[Muzyka] 50 Cent - Get Up [2008]
[Teledyski/Koncerty] 50 Cent - Get Rich or Die Trying
[Teledyski/Koncerty] 50 Cent - Amusement Park
[Teledyski/Koncerty] 50 Cent - Candy Shop
[Muzyka] 50 Cent - War Angel E.P (2009) [mp3@160]
Szczegóły torrenta
Trackerhttp://fr33dom.h33t.com:3310/announce
Kategoria:Muzyka » Teledyski/Koncerty
Dodane25/03/2010 08:03:41
Ostatnie Uaktualnienie29/08/2013 20:50:16
NIKT JESZCZE NIE DODAŁ KOMENTARZA

DODAJ KOMENTARZ
Więcej Emoticon



Wstecz

Żaden z opisanych na stronie plików nie jest przetrzymywany na serwerze. Administrator strony immortaltorrent.pl nie może ponieść konsekwencji prawnych za to co użytkownicy zamieszczają lub piszą na stronie.
Nie możesz używać tego serwisu do rozpowszechniania lub ściągania materiałów do których nie masz odpowiednich praw lub licencji. Użytkownicy zobowiązani są do przestrzeganie tych zasad.
Rejestracja konta jest jednoznaczna z akceptacją zasad.

2018 © immortaltorrent.pl


Najlepsze strony Torrentowe