Torrentów: 155978      Ranga: Gosc               Stwórz konto Odzyskiwanie hasła


Kategorie
Filmy
 ⇒ DivX - XviD
 ⇒ RMVB
 ⇒ DVD-R
 ⇒ TV + Seriale
 ⇒ HDTV-HD
 ⇒ VCD - SVCD
 ⇒ x 264
 ⇒  3D
Gry
 ⇒ Gry PC
 ⇒ Gry Konsole
 ⇒ xbox360
Muzyka
 ⇒ Muzyka
 ⇒ Teledyski/Koncerty
Książki - Komiksy
 ⇒ E-Booki + Audio
 ⇒ Komiksy
Inne
 ⇒ XXX
 ⇒ Dla Dzieci
 ⇒ Sport
 ⇒ Pozostałe - Różne
 ⇒ Manga - Anime
 ⇒ GSM - PDA
Aplikacje
 ⇒ Windows
 ⇒ Linux + Macintosh



Detale torrenta

Wolf Creek 2005 [DVDRip.Xvid] [ENG]
Kondycja:
Dodane: 16/02/2011
Rozmiar: 907.50 MB
Uploader: Anonimowy
seed(ów): 6
leecher(ów): 0
Pobrane: 6





Ocena: N/A


produkcja: Australia
gatunek: Horror
data premiery: 2005-01-20 (¦wiat)
re¿yseria: Greg McLean
scenariusz: Greg McLean
zdjêcia: Brandon Trost
czas trwania: 1:34:42

OPIS:
Grupa przyjació³ wybiera siê w podró¿ po pustych australijskich drogach. Ich auto odmawia pos³uszeñstwa w okolicy o nazwie \"Wolf Creek\". Bezsilni, ciesz± siê na widok nieznajomego oferuj±cego pomoc. Ich koszmar rozpoczyna siê, gdy mê¿czyzna ujawnia sw± prawdziw± naturê...

OBSADA:
John Jarratt...Mick Taylor
Cassandra Magrath...Liz Hunter
Andy McPhee...Bazza
Kestie Morassi...Kristy Earl
Nathan Phillips...Ben Mitchell

General
Complete name : Wolf Creek 2005 DVDRip Xvid BigPerm LKRGWC_LKRG.avi
Format : AVI
Format/Info : Audio Video Interleave
File size : 907 MiB
Duration : 1h 44mn
Overall bit rate : 1 216 Kbps

Video
ID : 0
Format : MPEG-4 Visual
Format profile : Advanced Simple@L5
Format settings, BVOP : Yes
Format settings, QPel : No
Format settings, GMC : No warppoints
Format settings, Matrix : Default (H.263)
Codec ID : XVID
Codec ID/Hint : XviD
Duration : 1h 44mn
Bit rate : 1 019 Kbps
Width : 704 pixels
Height : 396 pixels
Display aspect ratio : 16:9
Frame rate : 23.976 fps
Color space : YUV
Chroma subsampling : 4:2:0
Bit depth : 8 bits
Scan type : Progressive
Compression mode : Lossy
Bits/(Pixel*Frame) : 0.152
Stream size : 760 MiB (84%)
Writing library : XviD 1.2.1 (UTC 2008-12-04)

Audio
ID : 1
Format : AC-3
Format/Info : Audio Coding 3
Mode extension : CM (complete main)
Codec ID : 2000
Duration : 1h 44mn
Bit rate mode : Constant
Bit rate : 192 Kbps
Channel(s) : 2 channels
Channel positions : Front: L R
Sampling rate : 48.0 KHz
Bit depth : 16 bits
Compression mode : Lossy
Video delay : 42ms
Stream size : 143 MiB (16%)
Alignment : Split accross interleaves
Interleave, duration : 500 ms (11.99 video frames)
Interleave, preload duration : 500 ms
Language : English



http://leetleech.org/images/82990470439161879220.png
http://leetleech.org/images/34662529576044502111.png
http://leetleech.org/images/31500079805854759515.jpg
http://leetleech.org/images/03533356877137464856.png
Podobne torrenty
[DivX - XviD] Wolf Creek *2005* [DVDRip.XviD]
[DivX - XviD] Wolf Creek *2005* [DVDRip.XviD] [Lektor PL]
[DivX - XviD] Wolf Creek *2005* [DVDRip] [XviD-AT] [Lektor PL]
[DivX - XviD] Wolf Creek (2005) [DVDRip] [XviD-NN] [Lektor PL]
[DivX - XviD] Wolf Creek (2005) [DVDRip] [XviD] [AC-3] [Lektor PL] [H1]
[DivX - XviD] Wolf Creek 2 (2013) [DVDRip] [XviD-NN] [Lektor PL]
[DivX - XviD] Wolf Creek 2 *2013* [WEB-DL.XViD-SLiSU] [Napisy PL]
[DivX - XviD] Wolf Creek 2 *2013* [BRRip] [XviD-KiT] [Lektor PL]
[DivX - XviD] Wolf Creek 2 (2013) [BBRip][XviD] [AC-3] [Lektor PL] [H1]
[x 264] Wolf Creek 2 (2013) [1080p BrRip x264 - YIFY] [ENG]
Szczegóły torrenta
Trackerhttp://tracker.publicbt.com:80/announce
Kategoria:Filmy » DivX - XviD
Dodane16/02/2011 13:02:44
Ostatnie Uaktualnienie22/03/2013 11:39:21
NIKT JESZCZE NIE DODAŁ KOMENTARZA

DODAJ KOMENTARZ
Więcej Emoticon



Wstecz

Żaden z opisanych na stronie plików nie jest przetrzymywany na serwerze. Administrator strony immortaltorrent.pl nie może ponieść konsekwencji prawnych za to co użytkownicy zamieszczają lub piszą na stronie.
Nie możesz używać tego serwisu do rozpowszechniania lub ściągania materiałów do których nie masz odpowiednich praw lub licencji. Użytkownicy zobowiązani są do przestrzeganie tych zasad.
Rejestracja konta jest jednoznaczna z akceptacją zasad.

2020 © immortaltorrent.pl


Najlepsze strony Torrentowe