Witamy (Zaloguj się) Strona Główna Forum
   
   Torrentów: 128755      Ranga: Gość               Stwórz konto Odzyskiwanie hasła


Kategorie
Filmy
 ⇒ DivX - XviD
 ⇒ RMVB
 ⇒ DVD-R
 ⇒ TV + Seriale
 ⇒ HDTV-HD
 ⇒ VCD - SVCD
 ⇒ x 264
 ⇒  3D
Gry
 ⇒ Gry PC
 ⇒ Gry Konsole
 ⇒ xbox360
Muzyka
 ⇒ Muzyka
 ⇒ Teledyski/Koncerty
Książki - Komiksy
 ⇒ E-Booki + Audio
 ⇒ Komiksy
Inne
 ⇒ XXX
 ⇒ Dla Dzieci
 ⇒ Sport
 ⇒ Pozostałe - Różne
 ⇒ Manga - Anime
 ⇒ GSM - PDA
Aplikacje
 ⇒ Windows
 ⇒ Linux + Macintosh



Detale torrenta

Harold i Kumar: Spalone święta 3D(OU) - A Very Harold & Kumar 3D Christmas *2011* [mini-HD.1080p.Over-Under.AC3.BluRay.x264-SONDA] [Lektor PL]
Kondycja:
Dodane: 29/12/2013
Rozmiar: 4.00 GB
Uploader: Anonimowy

seed(ów): 79
leecher(ów): 468
Pobrane: 100





Ocena: N/A

Film w wersji 3D Over-Under.
Do odtworzenia filmu WYMAGANY odpowiedni sprzęt (TV 3D)
==================================================

Kopia mini-HD 1080p = 3,99 GB

gatunek: Komedia
produkcja: USA
premiera: 4 listopada 2011 (świat)
reżyseria: Todd Strauss-Schulson
scenariusz: Hayden Schlossberg,Jon Hurwitz

Obsada:
John Cho - Harold Lee
Kal Penn - Kumar Patel
Isabella Gielniak - Caren
Neil Patrick Harris
Patton Oswalt - Mikołaj ze sklepu
Thomas Lennon - Todd
Tristan Canning - Noah
Danny Trejo - Pan Perez

Opis:
Kumar Patel (Kal Penn), Harold Lee (John Cho) i Neil Patrick Harris, sieją spory zamęt przed zbliżającymi się świętami Bożego Narodzenia. Bohaterowie nie utrzymują ze sobą kontaktu od kilku lat. Otóż Harold przygotowuje się na przyjęcie w swoim domu rodziny apodyktycznego teścia. Zaś Kumar przeżywa rozstanie ze swoją dziewczyną, paląc marihuanę. Kiedy Kumar na progu swojego domu znajduje dziwną przesyłkę, próbując ją dostarczyć do Harolda, doprowadza do spalenia nagradzanej choinki teścia Harolda. Tak Harold i Kumar wyruszają na kolejną pełną zabawnych przygód wyprawę w poszukiwaniu idealnej choinki.

[Blu-ray] http://www.blu-ray.com/movies/A-Very-Harold-and-Kumar-3D-Christmas-Blu-ray/33105/#Screenshots

[IMDb] http://www.imdb.com/title/tt1268799/?ref_=fn_al_tt_3


BluRay 3D Rip (OU) - SONDA
=============================

General
Format : Matroska
Format version : Version 2
File size : 3.99 GiB
Duration : 1h 29mn
Encoding type : 2 pass
Overall bit rate mode : Variable
Overall bit rate : 6 378 Kbps
Movie name : VERY_H_K_XMAS_3D_BLUEBIRD.Bluray3D Rip by Sonda [AT-Team]
Encoded date : UTC 2013-12-27 20:16:07
Writing application : mkvmerge v5.7.0 ('The Whirlwind') built on Jul 8 2012 20:08:51
Writing library : libebml v1.2.3 + libmatroska v1.3.0

Video
ID : 1
Format : AVC
Format/Info : Advanced Video Codec
Format profile : High@L4.1
Format settings, CABAC : Yes
Format settings, ReFrames : 2 frames
Codec ID : V_MPEG4/ISO/AVC
Duration : 1h 29mn
Bit rate mode : Variable
Bit rate : 6 181 Kbps
Maximum bit rate : 40.0 Mbps
Width : 1 920 pixels
Height : 1 080 pixels
Display aspect ratio : 16:9 (2.39:1)
Frame rate mode : Constant
Frame rate : 23.976 fps
Color space : YUV
Chroma subsampling : 4:2:0
Bit depth : 8 bits
Scan type : Progressive
Bits/(Pixel*Frame) : 0.124
Stream size : 3.79 GiB (95%)
Title : BluRay 3D Rip by Sonda - encoding 2 pass
Writing library : x264 core 129
Default : Yes
Forced : No

Audio
ID : 2
Format : AC-3
Format/Info : Audio Coding 3
Mode extension : CM (complete main)
Format settings, Endianness : Big
Codec ID : A_AC3
Duration : 1h 29mn
Bit rate mode : Constant
Bit rate : 192 Kbps
Channel(s) : 2 channels
Channel positions : Front: L R
Sampling rate : 48.0 KHz
Bit depth : 16 bits
Compression mode : Lossy
Stream size : 123 MiB (3%)
Title : AC3 2.0 Lektor PL
Language : Polish
Default : Yes
Forced : No
Podobne torrenty
[HDTV-HD] Harold i Kumar: Spalone święta / A Very Harold & Kumar Christmas (2011) [720p.BluRay.x264-GHW] [Lektor PL]
[DivX - XviD] Harold i Kumar Uciekają z Guantanamo - Harold & Kumar Escape from Guantanamo Bay *2008* [DVBRip.XviD] [Lektor PL]
[DivX - XviD] Harold i Kumar: Ucieczka z Guantanamo - Harold and Kumar: Escape from Guantanamo Bay *2008* [DVDRip.XviD] [Lektor PL]
[DivX - XviD] A.Very.Harold.and.Kumar.Christmas
[HDTV-HD] Harold And Kumar Escape From Guantanamo Bay *2008* [UNRATED.720p.Bluray.x264]
[DivX - XviD] O dwóch takich co poszli w miasto - Harold and Kumar *2004* [DVDRip.XviD] [Lektor PL]
[RMVB] Harold & Kumar Escape from Guantanamo Bay *2008* [DVDRip] [RMVB] [Sub PL]
[DivX - XviD] O dwóch takich co poszli w miasto - Harold and Kumar Go to White Castle *2004* [DVDRip.XviD] [Lektor PL]
[DivX - XviD] Harold and Kumar Escape From Guantanamo Bay *2008* [PROPER.CAM.XViD-iSO700]
[DivX - XviD] Harold And Kumar Escape From Guantanamo Bay *2008* [UNRATED.DVDRip.XviD]
Szczegóły torrenta
Trackerhttp://94.228.192.98/announce
Multitracker http://94.228.192.98/announce
http://tracker.torrenty.org:6969/announce
http://exodus.desync.com:6969/announce
http://i.bandito.org/announce
udp://9.rarbg.com:2710/announce
udp://tracker.publicbt.com/announce
udp://10.rarbg.com/announce
udp://11.rarbg.me/announce
udp://11.rarbg.com/announce
udp://10.rarbg.me/announce
udp://tracker.openbittorrent.com
udp://tracker.openbittorrent.com:80
udp://tracker.publicbt.com:80/announce
udp://9.rarbg.me:2710/announce
http://tracker.immortaltorrent.pl/announce

Kategoria:Filmy » 3D
Dodane29/12/2013 18:12:20
Ostatnie Uaktualnienie29/12/2013 18:25:21
Pokaż/Ukryj pliki:
6 plików
NIKT JESZCZE NIE DODAŁ KOMENTARZA

DODAJ KOMENTARZ
Więcej Emoticon



Wstecz

Żaden z opisanych na stronie plików nie jest przetrzymywany na serwerze. Administrator strony immortaltorrent.pl nie może ponieść konsekwencji prawnych za to co użytkownicy zamieszczają lub piszą na stronie.
Nie możesz używać tego serwisu do rozpowszechniania lub ściągania materiałów do których nie masz odpowiednich praw lub licencji. Użytkownicy zobowiązani są do przestrzeganie tych zasad.
Rejestracja konta jest jednoznaczna z akceptacją zasad.

2014 © immortaltorrent.pl


Najlepsze strony Torrentowe