Torrentów: 134588      Ranga: Go¶ć               Stwórz konto Odzyskiwanie hasła


Kategorie
Filmy
 ⇒ DivX - XviD
 ⇒ RMVB
 ⇒ DVD-R
 ⇒ TV + Seriale
 ⇒ HDTV-HD
 ⇒ VCD - SVCD
 ⇒ x 264
 ⇒  3D
Gry
 ⇒ Gry PC
 ⇒ Gry Konsole
 ⇒ xbox360
Muzyka
 ⇒ Muzyka
 ⇒ Teledyski/Koncerty
Ksi±żki - Komiksy
 ⇒ E-Booki + Audio
 ⇒ Komiksy
Inne
 ⇒ XXX
 ⇒ Dla Dzieci
 ⇒ Sport
 ⇒ Pozostałe - Różne
 ⇒ Manga - Anime
 ⇒ GSM - PDA
Aplikacje
 ⇒ Windows
 ⇒ Linux + Macintosh



Detale torrenta

Zakazane Królestwo - The Forbidden Kingdom (2008) [BRRip 1080p x265 HEVC AC3][Lektor i Napisy PLEng][Eng]
Kondycja:
Dodane: 29/06/2015
Rozmiar: 3.66 GB
Uploader: Anonimowy

seed(ów): 1
leecher(ów): 2
Pobrane: 296





Ocena: N/A

INFO

reżyseria: Rob Minkoff
scenariusz: John Fusco
gatunek: Fantasy,Przygodowy
produkcja: Chiny,USA
premiera: 04-04-2008
muzyka: David Buckley
zdjęcia: Peter Pau
czas: 01:33:05

opis:

A discovery made by a kung fu obsessed American teen sends him on an adventure to China, where he joins up with a band of martial arts warriors in order to free the imprisoned Monkey King.

Nastoletni Jason za pomoc± tajemniczej laski przenosi się do ba¶niowej krainy w starożytnych Chinach, gdzie otrzymuje misję ratowania ¶wiata.

obsada:

Jackie Chan, Jet Li, Michael Angarano

dane techniczne:

The Forbidden Kingdom (2008)-alE13.mkv
Format : Matroska
Format version : Version 4 / Version 2
File size : 3.65 GiB
Duration : 1h 44mn
Overall bit rate : 4 998 Kbps
Movie name : The Forbidden Kingdom (2008)-alE13
Encoded date : UTC 2015-06-28 04:52:38
Writing application : mkvmerge v8.1.0 ('Psychedelic Postcard') 64bit
Writing library : libebml v1.3.1 + libmatroska v1.4.2
DURATION : 01:33:05.617000000
NUMBER_OF_FRAMES : 659
NUMBER_OF_BYTES : 2670258
_STATISTICS_WRITING_APP : mkvmerge v8.1.0 ('Psychedelic Postcard') 64bit
_STATISTICS_WRITING_DATE_UT : 2015-06-28 04:52:38
_STATISTICS_TAGS : BPS DURATION NUMBER_OF_FRAMES NUMBER_OF_BYTES

Video
ID : 1
Format : HEVC
Format/Info : High Efficiency Video Coding
Codec ID : V_MPEGH/ISO/HEVC
Duration : 1h 44mn
Bit rate : 4 194 Kbps
Width : 1 920 pixels
Height : 800 pixels
Display aspect ratio : 2.40:1
Frame rate mode : Constant
Frame rate : 23.976 fps
Bits/(Pixel*Frame) : 0.114
Stream size : 3.07 GiB (84%)
Title : The Forbidden Kingdom (2008)
Default : Yes
Forced : No

Audio #1
ID : 2
Format : AC-3
Format/Info : Audio Coding 3
Mode extension : CM (complete main)
Format settings, Endianness : Big
Codec ID : A_AC3
Duration : 1h 44mn
Bit rate mode : Constant
Bit rate : 256 Kbps
Channel(s) : 2 channels
Channel positions : Front: L R
Sampling rate : 48.0 KHz
Bit depth : 16 bits
Compression mode : Lossy
Delay relative to video : 13s 435ms
Stream size : 192 MiB (5%)
Title : The Forbidden Kingdom (2008)-alE13
Language : Polish
Default : Yes
Forced : No

Audio #2
ID : 3
Format : AC-3
Format/Info : Audio Coding 3
Mode extension : CM (complete main)
Format settings, Endianness : Big
Codec ID : A_AC3
Duration : 1h 44mn
Bit rate mode : Constant
Bit rate : 448 Kbps
Channel(s) : 6 channels
Channel positions : Front: L C R, Side: L R, LFE
Sampling rate : 48.0 KHz
Bit depth : 16 bits
Compression mode : Lossy
Stream size : 335 MiB (9%)
Title : The Forbidden Kingdom (2008)-alE13_AC3 5.1 ch_ 448 kbps
Language : English
Default : No
Forced : No

Text #1
ID : 4
Format : UTF-8
Codec ID : S_TEXT/UTF8
Codec ID/Info : UTF-8 Plain Text
Title : The Forbidden Kingdom (2008)-alE13
Language : English
Default : No
Forced : No

Text #2
ID : 5
Format : UTF-8
Codec ID : S_TEXT/UTF8
Codec ID/Info : UTF-8 Plain Text
Title : The Forbidden Kingdom (2008)-alE13
Language : Italian
Default : No
Forced : No

Text #3
ID : 6
Format : VobSub
Muxing mode : zlib
Codec ID : S_VOBSUB
Codec ID/Info : The same subtitle format used on DVDs
Title : The Forbidden Kingdom (2008)-alE13
Language : Polish
Default : Yes
Forced : No

Menu
00:00:00.000 : en:00:00:00.000
00:07:29.991 : en:00:07:29.991
00:11:27.020 : en:00:11:27.020
00:19:16.947 : en:00:19:16.947
00:29:31.937 : en:00:29:31.937
00:37:12.939 : en:00:37:12.939
00:46:30.955 : en:00:46:30.955
00:53:48.976 : en:00:53:48.976
01:06:07.922 : en:01:06:07.922
01:13:25.943 : en:01:13:25.943
01:14:27.922 : en:01:14:27.922
01:32:29.961 : en:01:32:29.961
Podobne torrenty
[DivX - XviD] Miecz Smoka - Tian jiang xiong shi (2015) [BRRip 1080p x265-HEVC DTS][Napisy PLEng][Eng][Kino Azja]
[DivX - XviD] Zakazane Królestwo - Forbidden Kingdom *2008* [DVDRip.XviD] [Lektor PL - IVO]
[DivX - XviD] Zakazane królestwo - The Forbidden Kingdom *2008* [DVDRip.XviD] [Lektor PL]
[HDTV-HD] Ucieczka na Atenę-Escape to Athena (1979)[BRRip.1080p.x265-HEVC.AC3][Lektor i Napisy PL/Eng][Eng]
[HDTV-HD] Ucieczka na Atenę-Escape to Athena (1979)[BRRip.1080p.x265-HEVC by alE13 AC3][Lektor i Napisy PL/Eng][Eng]
[HDTV-HD] Królestwo niebieskie-Kingdom of Heaven (2005)[BRRip 1080p x264 by alE13 DTS/AC3][Lektor i Napisy PL/Eng][Eng]
[HDTV-HD] Królestwo - The Kingdom *2007* [1080p] [Bluray] [Lektor i Napisy PL]
[HDTV-HD] Oszukać Przeznaczenie-Final Destination: Antology (2000-2011)[BRRip 1080p x265 HEVC by alE13 AC3]
[HDTV-HD] VA-The Best British Rock Concert Of All Time: Live At Knebworth (2015)[BRRip.1080p.x265-HEVC by alE13.DTS-MA/Core] [Eng]
[x 264] John Rambo - Rambo (2008) [480p] [BRRip] [x265.AC3-Shadow] [HEVC] [Lektor PL]
Szczegóły torrenta
Trackerhttp://tracker.aletorrenty.pl:2710/announce
Multitracker http://tracker.aletorrenty.pl:2710/announce
udp://inferno.demonoid.ooo:3392/announce
http://exodus.desync.com:6969/announce
http://bigfoot1942.sektori.org:6969/announce
http://tracker.filetracker.pl:8089/announce
http://tracker.torrenty.org:6969/announce
http://tracker.filetracker.pl:8089/announce
udp://tracker.aletorrenty.pl:2710/announce

Kategoria:Filmy » DivX - XviD
Dodane29/06/2015 18:06:10
Ostatnie Uaktualnienie19/08/2015 12:50:03
Pokaż/Ukryj pliki:
9 plików
NIKT JESZCZE NIE DODAŁ KOMENTARZA

DODAJ KOMENTARZ
Więcej Emoticon



Wstecz

Żaden z opisanych na stronie plików nie jest przetrzymywany na serwerze. Administrator strony immortaltorrent.pl nie może ponieść konsekwencji prawnych za to co użytkownicy zamieszczają lub piszą na stronie.
Nie możesz używać tego serwisu do rozpowszechniania lub ściągania materiałów do których nie masz odpowiednich praw lub licencji. Użytkownicy zobowiązani są do przestrzeganie tych zasad.
Rejestracja konta jest jednoznaczna z akceptacją zasad.

2017 © immortaltorrent.pl


Najlepsze strony Torrentowe