Torrentów: 135424      Ranga: Gość               Stwórz konto Odzyskiwanie hasła


Kategorie
Filmy
 ⇒ DivX - XviD
 ⇒ RMVB
 ⇒ DVD-R
 ⇒ TV + Seriale
 ⇒ HDTV-HD
 ⇒ VCD - SVCD
 ⇒ x 264
 ⇒  3D
Gry
 ⇒ Gry PC
 ⇒ Gry Konsole
 ⇒ xbox360
Muzyka
 ⇒ Muzyka
 ⇒ Teledyski/Koncerty
Książki - Komiksy
 ⇒ E-Booki + Audio
 ⇒ Komiksy
Inne
 ⇒ XXX
 ⇒ Dla Dzieci
 ⇒ Sport
 ⇒ Pozostałe - Różne
 ⇒ Manga - Anime
 ⇒ GSM - PDA
Aplikacje
 ⇒ Windows
 ⇒ Linux + Macintosh



Detale torrenta

Nagła śmierć-Sudden Death (1995)[BDRip 1080p by alE13 DTS/AC3[Lektor i Napisy PL/Eng][Eng]
Kondycja:
Dodane: 28/12/2016
Rozmiar: 8.43 GB
Uploader: alE13

seed(ów): 1
leecher(ów): 1
Pobrane: 0





Ocena: N/A



http://www.imdb.com/title/tt0114576/
http://www.filmweb.pl/film/Nag%C5%82a+%C5%9Bmier%C4%87-1995-679

Plik zawiera Sample.

reżyseria: Peter Hyams
scenariusz: Gene Quintano
gatunek: Sensacyjny
produkcja: USA
premiera: 26-10-1995
muzyka:         John Debney
zdjęcia:        Peter Hyams
czas:           1h 49mn

opis:

A former fireman takes on a group of terrorists holding the Vice President
and others hostage during the seventh game of the NHL Stanley Cup finals.

W trakcie finałowych rozgrywek o Puchar Stanleya terroryści opanowują halę sportową.
Tylko inspektor pożarnictwa podejmie próbę ocalenia przebywającego na meczu wiceprezydenta
oraz niczego nieświadomych widzów.

http://i.imgur.com/drwE7Bt.jpg
http://i.imgur.com/AHf191J.jpg
http://i.imgur.com/ZMgURXt.jpg
http://i.imgur.com/JMUTjYd.jpg

obsada:

Jean-Claude Van Damme, Powers Boothe, Raymond J. Barry

dane techniczne:

Sudden Death (1995)-alE13\Sudden Death (1995)-alE13.mkv
Format                      : Matroska
Format version              : Version 4 / Version 2
File size                   : 8.37 GiB
Duration                    : 1 h 49 min
Overall bit rate            : 10.9 Mb/s
Movie name                  : Sudden Death (1995)-alE13
Encoded date                : UTC 2016-12-28 07:40:33
Writing application         : mkvmerge v8.1.0 ('Psychedelic Postcard') 64bit
Writing library             : libebml v1.3.1 + libmatroska v1.4.2
Cover                       : Yes
Attachments                 : cover.jpg

Video
ID                          : 3
Format                      : AVC
Format/Info                 : Advanced Video Codec
Format profile              : High@L4.1
Format settings, CABAC      : Yes
Format settings, ReFrames   : 2 frames
Codec ID                    : V_MPEG4/ISO/AVC
Duration                    : 1 h 49 min
Bit rate                    : 9 128 kb/s
Width                       : 1 920 pixels
Height                      : 816 pixels
Display aspect ratio        : 2.35:1
Frame rate mode             : Constant
Frame rate                  : 23.976 (24000/1001) FPS
Color space                 : YUV
Chroma subsampling          : 4:2:0
Bit depth                   : 8 bits
Scan type                   : Progressive
Bits/(Pixel*Frame)          : 0.243
Stream size                 : 7.01 GiB (84%)
Title                       : Sudden Death (1995)-alE13
Writing library             : x264 core 142
Default                     : Yes
Forced                      : No
Color range                 : Limited
Color primaries             : BT.709
Transfer characteristics    : BT.709
Matrix coefficients         : BT.709

Audio #1
ID                          : 1
Format                      : DTS
Format/Info                 : Digital Theater Systems
Mode                        : 16
Format settings, Endianness : Big
Codec ID                    : A_DTS
Duration                    : 1 h 49 min
Bit rate mode               : Constant
Bit rate                    : 1 509 kb/s
Channel(s)                  : 6 channels
Channel positions           : Front: L C R, Side: L R, LFE
Sampling rate               : 48.0 kHz
Frame rate                  : 93.750 FPS (512 spf)
Bit depth                   : 24 bits
Compression mode            : Lossy
Stream size                 : 1.16 GiB (14%)
Title                       : Sudden Death (1995)-alE13_DTS
Language                    : English
Default                     : No
Forced                      : No

Audio #2
ID                          : 4
Format                      : AC-3
Format/Info                 : Audio Coding 3
Mode extension              : CM (complete main)
Format settings, Endianness : Big
Codec ID                    : A_AC3
Duration                    : 1 h 47 min
Bit rate mode               : Constant
Bit rate                    : 256 kb/s
Channel(s)                  : 2 channels
Channel positions           : Front: L R
Sampling rate               : 48.0 kHz
Frame rate                  : 31.250 FPS (1536 spf)
Bit depth                   : 16 bits
Compression mode            : Lossy
Delay relative to video     : 4 s 130 ms
Stream size                 : 197 MiB (2%)
Title                       : Sudden Death (1995)-alE13_AC3
Language                    : Polish
Default                     : Yes
Forced                      : No

Text #1
ID                          : 2
Format                      : UTF-8
Codec ID                    : S_TEXT/UTF8
Codec ID/Info               : UTF-8 Plain Text
Duration                    : 1 h 44 min
Bit rate                    : 57 b/s
Count of elements           : 1372
Stream size                 : 44.1 KiB (0%)
Title                       : Sudden Death (1995)-alE13
Language                    : English
Default                     : No
Forced                      : No

Text #2
ID                          : 5
Format                      : UTF-8
Codec ID                    : S_TEXT/UTF8
Codec ID/Info               : UTF-8 Plain Text
Duration                    : 1 h 43 min
Bit rate                    : 50 b/s
Count of elements           : 1008
Stream size                 : 38.6 KiB (0%)
Title                       : Sudden Death (1995)-alE13
Language                    : Polish
Default                     : Yes
Forced                      : No

Menu
00:00:00.000                : en: Main Titles; Under Fire
00:03:25.830                : en: Game Day
00:07:24.110                : en: The Terrorists
00:20:31.605                : en: The Hostile Takeover
00:36:52.543                : en: The Killer Penguin
00:42:21.893                : en: A Gunman on the Griddle
00:44:24.849                : en: One Big Bomb
00:52:46.392                : en: Death on Ice
00:58:50.923                : en: The Message on the Billboard
01:00:46.121                : en: McCord Makes His Point
01:19:40.838                : en: The New Goalie
01:30:19.518                : en: The Top of the World
01:33:24.286                : en: Death on the Dome
01:36:07.991                : en: The Sky-Cam Assault
01:41:47.831                : en: The Face-Off
01:45:58.039                : en: End Titles
Podobne torrenty
[DivX - XviD] Nagła śmierć - Sudden Death *1995* [DVDRip] [DivX] [Lektor PL]
[DivX - XviD] Nagła śmierć - Sudden Death *1995* [DVDRiP] [XviD] [Lektor PL]
[DivX - XviD] Nagła śmierć - Sudden Death *1995* [DVDRip.XViD ] [Lektor PL]
[HDTV-HD] W Potrzasku-The Hunted (1995)[BDRip 1080p x264 by alE13 AC3/DTS][Lektor i Napisy PL/Eng][Eng]
[HDTV-HD] Ślepy zaułek-Clockers (1995)[BDRip 1080p by alE13 AC3/DTS][Lektor i Napisy PL/Eng][Eng]
[HDTV-HD] Kobieta-Demolka-The Demolitionist (1995)[BDRip 1080p by alE13 AC3][Lektor i Napisy PL/Ger][Eng]
[HDTV-HD] Bez odwrotu-No Way Back (1995)[BRRip 1080p by alE13 AC3][Lektor PL/Napisy Eng][Eng]
[HDTV-HD] Tajemnica Syriusza-Screamers (1995)[WEBRip 1080p x264 by alE13 AC3][Lektor i Napisy PL/Eng][Eng]
[DivX - XviD] Sudden Death [1995] [DVDRip.XviD]
[HDTV-HD] Być albo nie być-To Be or Not to Be (1983)[BDRip 1080p by alE13 AC3/DTS][Lektor i Napisy PL/Eng][Eng]
Szczegóły torrenta
Trackerhttp://auratorrent.pl:8089/announce
Multitracker http://auratorrent.pl:8089/announce
http://pow7.com:80/announce
http://pow7.com/announce
http://tracker.tfile.me/announce
http://retracker.omsk.ru:2710/announce
http://mgtracker.org:2710/announce
udp://tracker.leechers-paradise.org:6969/announce
http://mgtracker.org:2710/announce
http://pow7.com:80/announce
http://pow7.com/announce
http://tracker.torrentyorg.pl/announce
udp://inferno.demonoid.ooo:3392/announce
udp://inferno.demonoid.pw:3393/announce
udp://tracker.coppersurfer.tk:6969/announce

Kategoria:Filmy » HDTV-HD
Dodane28/12/2016 09:12:39
Ostatnie Uaktualnienie28/12/2016 09:09:39
Pokaż/Ukryj pliki:
12 plików
NIKT JESZCZE NIE DODAŁ KOMENTARZA

DODAJ KOMENTARZ
Więcej Emoticon



Wstecz

Żaden z opisanych na stronie plików nie jest przetrzymywany na serwerze. Administrator strony immortaltorrent.pl nie może ponieść konsekwencji prawnych za to co użytkownicy zamieszczają lub piszą na stronie.
Nie możesz używać tego serwisu do rozpowszechniania lub ściągania materiałów do których nie masz odpowiednich praw lub licencji. Użytkownicy zobowiązani są do przestrzeganie tych zasad.
Rejestracja konta jest jednoznaczna z akceptacją zasad.

2017 © immortaltorrent.pl


Najlepsze strony Torrentowe