Torrentów: 134795      Ranga: Gość               Stwórz konto Odzyskiwanie hasła


Kategorie
Filmy
 ⇒ DivX - XviD
 ⇒ RMVB
 ⇒ DVD-R
 ⇒ TV + Seriale
 ⇒ HDTV-HD
 ⇒ VCD - SVCD
 ⇒ x 264
 ⇒  3D
Gry
 ⇒ Gry PC
 ⇒ Gry Konsole
 ⇒ xbox360
Muzyka
 ⇒ Muzyka
 ⇒ Teledyski/Koncerty
Książki - Komiksy
 ⇒ E-Booki + Audio
 ⇒ Komiksy
Inne
 ⇒ XXX
 ⇒ Dla Dzieci
 ⇒ Sport
 ⇒ Pozostałe - Różne
 ⇒ Manga - Anime
 ⇒ GSM - PDA
Aplikacje
 ⇒ Windows
 ⇒ Linux + Macintosh



Detale torrenta

Piper (2016)[BRRip 2160p x265 HEVC by alE13 AC3][Eng]
Kondycja:
Dodane: 10/11/2016
Rozmiar: 935.68 MB
Uploader: alE13

seed(ów): 1
leecher(ów): 9
Pobrane: 0





Ocena: N/A



http://www.filmweb.pl/film/Piper-2016-768113
http://www.imdb.com/title/tt5613056/

reżyseria: Alan Barillaro
scenariusz:     Alan Barillaro
gatunek: Animacja,Krótkometrażowy
produkcja: USA
premiera: 16-06-2016
czas:           6mn 5s

opis:

A mother bird tries to teach her little one how
to find food by herself. In the process, she encounters
a traumatic experience that she must overcome in order to survive.

Matka małego ptaszka próbuje nauczyć swoje maleństwo jak znaleźć pożywienie samemu.
W tym procesie, spotyka traumatyczne doświadczenie, które musi sam pokonać, aby przetrwać.

http://i.imgur.com/8oQdqff.jpg
http://i.imgur.com/Vx6O0qn.jpg
http://i.imgur.com/Cq2ZGs4.jpg

obsada: Piper

dane techniczne:

Piper (2016)-alE13).mkv
Format                      : Matroska
Format version              : Version 4 / Version 2
File size                   : 930 MiB
Duration                    : 6 min 5 s
Overall bit rate            : 21.3 Mb/s
Movie name                  : Piper (2016)-alE13
Encoded date                : UTC 2016-11-10 09:15:44
Writing application         : mkvmerge v8.1.0 ('Psychedelic Postcard') 64bit
Writing library             : libebml v1.3.1 + libmatroska v1.4.2
Attachments                 : cower2.jpg

Video
ID                          : 1
Format                      : HEVC
Format/Info                 : High Efficiency Video Coding
Codec ID                    : V_MPEGH/ISO/HEVC
Duration                    : 6 min 5 s
Bit rate                    : 20.7 Mb/s
Width                       : 3 840 pixels
Height                      : 2 160 pixels
Display aspect ratio        : 16:9
Frame rate mode             : Constant
Frame rate                  : 23.976 (24000/1001) FPS
Bits/(Pixel*Frame)          : 0.104
Stream size                 : 902 MiB (97%)
Title                       : Piper (2016)-alE13
Default                     : Yes
Forced                      : No

Audio
ID                          : 2
Format                      : AC-3
Format/Info                 : Audio Coding 3
Mode extension              : CM (complete main)
Format settings, Endianness : Big
Codec ID                    : A_AC3
Duration                    : 6 min 5 s
Bit rate mode               : Constant
Bit rate                    : 640 kb/s
Channel(s)                  : 6 channels
Channel positions           : Front: L C R, Side: L R, LFE
Sampling rate               : 48.0 kHz
Frame rate                  : 31.250 FPS (1536 spf)
Bit depth                   : 16 bits
Compression mode            : Lossy
Stream size                 : 27.9 MiB (3%)
Title                       : Piper (2016)-alE13_AC3
Language                    : English
Default                     : Yes
Forced                      : No
Podobne torrenty
[HDTV-HD] Nowy Początek-Arrival 4K (2016)[BDRip 2160p x265 HEVC by alE13 DTS-MA/Core][Napisy PL/Eng][Eng]
[HDTV-HD] Przełęcz ocalonych-Hacksaw Ridge 4K (2016)[BDRip 2160p x265 HEVC by alE13 Atmos/TrueHD][Napisy PL][Eng]
[HDTV-HD] Oszukać Przeznaczenie-Final Destination: Antology (2000-2011)[BRRip 1080p x265 HEVC by alE13 AC3]
[HDTV-HD] VA-The Best British Rock Concert Of All Time: Live At Knebworth (2015)[BRRip.1080p.x265-HEVC by alE13.DTS-MA/Core] [Eng]
[HDTV-HD] Siedmiu wspaniałych-The Magnificent Seven (1960)[BRRip.2160p.x265.AC3/DTS-MA Core][Lektor PL i Multi Subtitles][Eng]
[Dla Dzieci] Rio 2 *2014* [480p] [BRRip] [HEVC] [x265.AC3-Shadow] [Dubbing PL]
[x 264] Joe *2013* [480p] [BRRip] [x265.AC3-Shadow][HEVC] [Lektor PL]
[HDTV-HD] Lucy *2014* [720p] [BRRip] [HEVC] [x265.AC3-Shadow] [Lektor PL]
[x 264] Automata *2014* [480p] [BRRip] [x265.AC3-Shadow] [HEVC] [Lektor PL]
[x 264] Automata *2014* [720p] [BRRip] [x265.AC3-Shadow] [HEVC] [Lektor PL]
Szczegóły torrenta
Trackerhttp://tracker.torrentyorg.pl/announce
Multitracker http://tracker.torrentyorg.pl/announce
http://mgtracker.org:2710/announce
http://pow7.com:80/announce
http://pow7.com/announce
udp://tracker.leechers-paradise.org:6969/announce
udp://tracker.coppersurfer.tk:6969/announce
udp://tracker.opentrackr.org:1337/announce
udp://tracker.coppersurfer.tk:6969/announce
udp://tracker.leechers-paradise.org:6969/announce
udp://eddie4.nl:6969/announce
udp://tracker.coppersurfer.tk:6969/announce
udp://p4p.arenabg.com:1337/announce
udp://p4p.arenabg.ch:1337/announce
udp://tracker.internetwarriors.net:1337/announce
udp://tracker.openbittorrent.com:80/announce
udp://tracker.piratepublic.com:1337/announce
udp://tracker.opentrackr.org:1337/announce
udp://explodie.org:6969/announce
udp://p4p.arenabg.ch:1337/announce
udp://inferno.demonoid.ooo:3392/announce
udp://inferno.demonoid.pw:3393/announce
udp://tracker.coppersurfer.tk:6969/announce
udp://zer0day.to:1337/announce
udp://tracker.ilibr.org:6969/announce
udp://tracker.leechers-paradise.org:6969/announce
udp://eddie4.nl:6969/announce
udp://tracker.ilibr.org:80/announce

Kategoria:Filmy » HDTV-HD
Dodane10/11/2016 11:11:34
Ostatnie Uaktualnienie10/11/2016 11:36:34
Pokaż/Ukryj pliki:
13 plików
NIKT JESZCZE NIE DODAŁ KOMENTARZA

DODAJ KOMENTARZ
Więcej Emoticon



Wstecz

Żaden z opisanych na stronie plików nie jest przetrzymywany na serwerze. Administrator strony immortaltorrent.pl nie może ponieść konsekwencji prawnych za to co użytkownicy zamieszczają lub piszą na stronie.
Nie możesz używać tego serwisu do rozpowszechniania lub ściągania materiałów do których nie masz odpowiednich praw lub licencji. Użytkownicy zobowiązani są do przestrzeganie tych zasad.
Rejestracja konta jest jednoznaczna z akceptacją zasad.

2017 © immortaltorrent.pl


Najlepsze strony Torrentowe