Witamy (Zaloguj się) Strona Główna Forum
   
   Torrentów: 127698      Ranga: Gość               Stwórz konto Odzyskiwanie hasła


Kategorie
Filmy
 ⇒ DivX - XviD
 ⇒ RMVB
 ⇒ DVD-R
 ⇒ TV + Seriale
 ⇒ HDTV-HD
 ⇒ VCD - SVCD
 ⇒ x 264
 ⇒  3D
Gry
 ⇒ Gry PC
 ⇒ Gry Konsole
 ⇒ xbox360
Muzyka
 ⇒ Muzyka
 ⇒ Teledyski/Koncerty
Książki - Komiksy
 ⇒ E-Booki + Audio
 ⇒ Komiksy
Inne
 ⇒ XXX
 ⇒ Dla Dzieci
 ⇒ Sport
 ⇒ Pozostałe - Różne
 ⇒ Manga - Anime
 ⇒ GSM - PDA
Aplikacje
 ⇒ Windows
 ⇒ Linux + Macintosh



Detale torrenta

Mała syrenka 3D (OU) - The Little Mermaid *1989* [1080p.Half.Over-Under.DTS 5.1.AC3.BluRay.x264-LEON 345] [Dubbing i Napisy PL]
Kondycja:
Dodane: 27/09/2013
Rozmiar: 8.18 GB
Uploader: Anonimowy

seed(ów): 19
leecher(ów): 49
Pobrane: 66





Ocena: N/A

Film w wersji 3D Over-Under.
Do odtworzenia filmu WYMAGANY odpowiedni sprzęt (TV 3D).
==================================================

IMDB: http://www.imdb.com/title/tt0097757/?ref_=sr_1

gatunek: Animacja, Musical, Baśń
produkcja: USA
premiera: 29 maja 1998 (Polska), 15 listopada 1989 (świat)
reżyseria: John Musker, Ron Clements
scenariusz: John Musker, Ron Clements

Niezależna księżniczka Ariel marzy o tym, by odrzucić ogon i stać się częścią świata ludzi. W końcu zawiera pakt z podstępną wiedźmą Urszulą, która wprawdzie przemienia syrenkę w człowieka, ale w zastaw zabiera jej najcenniejszy skarb – przepiękny głos. Ariel będzie potrzebowała dużo odwagi, determinacji oraz pomocy wiernych przyjaciół – Sebastiana i Florka – aby poradzić sobie w nowych okolicznościach i uporządkować sprawy w obu światach.

General

Format : Matroska
Format version : Version 2
File size : 8.18 GiB
Duration : 1h 22mn
Overall bit rate : 14.1 Mbps
Movie name : The Little Mermaid 1080p Blu-Ray 3D AVC DTS-HD MA 7.1-CHDBits.Title.800.Rip by Leon 345
Encoded date : UTC 2013-09-23 12:53:39
Writing application : mkvmerge v5.7.0 ('The Whirlwind') built on Jul 8 2012 20:08:51
Writing library : libebml v1.2.3 + libmatroska v1.3.0

Video
ID : 1
Format : AVC
Format/Info : Advanced Video Codec
Format profile : Main@L4.0
Format settings, CABAC : Yes
Format settings, ReFrames : 2 frames
Codec ID : V_MPEG4/ISO/AVC
Duration : 1h 22mn
Bit rate : 11.2 Mbps
Width : 1 920 pixels
Height : 1 080 pixels
Display aspect ratio : 16:9 (1.78:1)
Frame rate mode : Constant
Frame rate : 23.976 fps
Color space : YUV
Chroma subsampling : 4:2:0
Bit depth : 8 bits
Scan type : Progressive
Bits/(Pixel*Frame) : 0.226
Stream size : 6.51 GiB (80%)
Title : Rip by Leon 345
Writing library : x264 core
Default : Yes
Forced : No
Color primaries : BT.709
Transfer characteristics : BT.709
Matrix coefficients : BT.709

Audio #1
ID : 2
Format : AC-3
Format/Info : Audio Coding 3
Mode extension : CM (complete main)
Format settings, Endianness : Big
Codec ID : A_AC3
Duration : 1h 22mn
Bit rate mode : Constant
Bit rate : 448 Kbps
Channel(s) : 6 channels
Channel positions : Front: L C R, Side: L R, LFE
Sampling rate : 48.0 KHz
Bit depth : 16 bits
Compression mode : Lossy
Stream size : 266 MiB (3%)
Title : AC3 5.1 dubbing PL
Language : Polish
Default : Yes
Forced : Yes

Audio #2
ID : 3
Format : AC-3
Format/Info : Audio Coding 3
Mode extension : CM (complete main)
Format settings, Endianness : Big
Codec ID : A_AC3
Duration : 1h 22mn
Bit rate mode : Constant
Bit rate : 640 Kbps
Channel(s) : 6 channels
Channel positions : Front: L C R, Side: L R, LFE
Sampling rate : 48.0 KHz
Bit depth : 16 bits
Compression mode : Lossy
Stream size : 380 MiB (5%)
Title : AC3 5.1
Language : English
Default : No
Forced : No

Audio #3
ID : 4
Format : DTS
Format/Info : Digital Theater Systems
Mode : 16
Format settings, Endianness : Big
Codec ID : A_DTS
Duration : 1h 22mn
Bit rate mode : Constant
Bit rate : 1 509 Kbps
Channel(s) : 6 channels
Channel positions : Front: L C R, Side: L R, LFE
Sampling rate : 48.0 KHz
Bit depth : 24 bits
Compression mode : Lossy
Stream size : 895 MiB (11%)
Title : DTS 5.1 Orginal
Language : English
Default : No
Forced : No

Text #1
ID : 5
Format : UTF-8
Codec ID : S_TEXT/UTF8
Codec ID/Info : UTF-8 Plain Text
Title : Napisy 2D.srt
Language : Polish
Default : No
Forced : No

Text #2
ID : 6
Format : PGS
Muxing mode : zlib
Codec ID : S_HDMV/PGS
Codec ID/Info : The same subtitle format used on BDs/HD-DVDs
Title : Napisy 3D.sup
Language : Polish
Default : No
Forced : No

Text #3
ID : 7
Format : UTF-8
Codec ID : S_TEXT/UTF8
Codec ID/Info : UTF-8 Plain Text
Default : Yes
Forced : Yes

Source [thx]:
A/V-The Little Mermaid 1989 1080p Blu-Ray 3D AVC DTS-HD MA 7.1-CHDBits
Dubbing PL - DVD9 - DVDSEED
Podobne torrenty
[Dla Dzieci] Mała Syrenka - The Little Mermaid *1989* [DVDRip.x264] [16:9] [Dubbing PL]
[Dla Dzieci] Mała syrenka - The Little Mermaid *1989* [DVDRip.DivX] [Dubbing PL]
[ 3D] Rio 3D(OU) *2011* [1080p.Half.Over-Under.DTS 5.1.AC3.BluRay.x264-SONDA] [Dubbing i Napisy PL]
[ 3D] Dracula 3D (OU) *2012* [1080p.Half.Over-Under.AC3.PLSUBBED.BluRay.x264-LEON 345]+[Bonus]
[ 3D] Java Heat 3D(OU) *2013* [1080p.Half.Over-Under.DualAudio.DTS-HD MA 7.1.AC3.PLSUBBED.BluRay.x264-LEON 345]
[ 3D] The Amazing Spider-Man 3D *2012* [1080p.BluRay.Half.OU.DTS.x264-HDMaNiAcS] [Dubbing i Napisy PL]
[ 3D] Smerfy 2 3D (OU) - The Smurfs 2 *2013* [1080p.Half.Over-Under.DTS-HD MA.5.1.AC3.BluRay.x264-SONDA] [Dubbing i Napisy PL]
[ 3D] Merida Waleczna - Brave 3D *2012* [1080p.BluRay.Half.OU.DTS.x264-CiNEMAN][Dubbing i Napisy PL]
[Dla Dzieci] Mała Syrenka: Dzieciństwo Ariel-Little Mermaid: The Ariel's Beginning *2008*
[ 3D] Oz Wielki i Potężny - Oz The Great and Powerful 3D *2013* [1080p.BluRay.Half-OU.DTS.x264-CiNEMAN] [Dubbing i Napisy PL]
Szczegóły torrenta
Trackerhttp://94.228.192.98/announce
Multitracker http://94.228.192.98/announce
http://tracker.torrenty.org:6969/announce
http://newhorizons.twentyforty.me:2710/announce
udp://9.rarbg.com:2710/announce
http://tracker.immortaltorrent.pl/announce

Kategoria:Filmy » 3D
Dodane27/09/2013 11:09:48
Ostatnie Uaktualnienie27/09/2013 11:37:48
Pokaż/Ukryj pliki:
5 plików
NIKT JESZCZE NIE DODAŁ KOMENTARZA

DODAJ KOMENTARZ
Więcej Emoticon



Wstecz

Żaden z opisanych na stronie plików nie jest przetrzymywany na serwerze. Administrator strony immortaltorrent.pl nie może ponieść konsekwencji prawnych za to co użytkownicy zamieszczają lub piszą na stronie.
Nie możesz używać tego serwisu do rozpowszechniania lub ściągania materiałów do których nie masz odpowiednich praw lub licencji. Użytkownicy zobowiązani są do przestrzeganie tych zasad.
Rejestracja konta jest jednoznaczna z akceptacją zasad.

2014 © immortaltorrent.pl


Najlepsze strony Torrentowe