Torrentów: 137918      Ranga: Gość               Stwórz konto Odzyskiwanie hasła


Kategorie
Filmy
 ⇒ DivX - XviD
 ⇒ RMVB
 ⇒ DVD-R
 ⇒ TV + Seriale
 ⇒ HDTV-HD
 ⇒ VCD - SVCD
 ⇒ x 264
 ⇒  3D
Gry
 ⇒ Gry PC
 ⇒ Gry Konsole
 ⇒ xbox360
Muzyka
 ⇒ Muzyka
 ⇒ Teledyski/Koncerty
Książki - Komiksy
 ⇒ E-Booki + Audio
 ⇒ Komiksy
Inne
 ⇒ XXX
 ⇒ Dla Dzieci
 ⇒ Sport
 ⇒ Pozostałe - Różne
 ⇒ Manga - Anime
 ⇒ GSM - PDA
Aplikacje
 ⇒ Windows
 ⇒ Linux + Macintosh



Detale torrenta

Wyborcze jaja - The Campaign 2012 [AC3] [DVDRip] [XviD-torentup] [Lektor PL]
Kondycja:
Dodane: 11/01/2017
Rozmiar: 1.17 GB
Uploader: torentup

seed(ów): 47
leecher(ów): 20
Pobrane: 137





Ocena: N/A

=====================
INFO
================

Reżyseria: Jay Roach
Scenariusz: Chris Henchy, Shawn Harwell
Premiera światowa: 9 sierpnia 2012
Produkcja: USA
Gatunek: Komedia

=====================
OPIS
====================

Doświadczony kongresman Cam Brady (Will Ferrell) — po wielkiej publicznej gafie popełnionej przed nadchodzącymi wyborami — musi konkurować z kandydatem wystawionym przez parę knujących, bardzo zamożnych prezesów zainteresowanych zdobyciem wpływów w Karolinie Północnej. Ich wybór padł na naiwnego Marty'ego Hugginsa (Zach Galifianakis), kierownika lokalnego ośrodka turystycznego. Walka obu kandydatów przeradza się w polityczną wojnę, jakiej świat jeszcze nie widział. Jej uczestnicy nie przebierają w środkach — obrzucają się błotem, wbijają przeciwnikowi nóż w plecy i rozbijają rodziny. Nawet kiedy wydaje się, że twórcy kampanii porzucili już wszelkie zasady moralne, okazuje się, że zawsze mogą stoczyć się jeszcze niżej.

=====================
OBSADA
====================

Will Ferrell....Cam Brady
Zach Galifianakis....Marty Huggins
Sarah Baker....Mitzi Huggins
Dylan McDermott....Tim Wattley
Jason Sudeikis....Mitch
Katherine LaNasa....Rose Brady
Brian Cox....Raymond Huggins
Billy Slaughter....Dermot

=====================
DANE TECHNICZNE
=====================

Format                         : AVI
Format/Info                    : Audio Video Interleave
File size                      : 1.17 GiB
Duration                       : 1h 25mn
Overall bit rate               : 1 952 Kbps

Video
ID                             : 0
Format                         : MPEG-4 Visual
Format profile                 : Advanced Simple@L5
Format settings, BVOP          : 2
Format settings, QPel          : No
Format settings, GMC           : No warppoints
Format settings, Matrix        : Default (H.263)
Codec ID                       : XVID
Codec ID/Hint                  : XviD
Duration                       : 1h 25mn
Bit rate                       : 1 554 Kbps
Width                          : 720 pixels
Height                         : 400 pixels
Display aspect ratio           : 16:9
Frame rate                     : 23.976 fps
Color space                    : YUV
Chroma subsampling             : 4:2:0
Bit depth                      : 8 bits
Scan type                      : Progressive
Compression mode               : Lossy
Bits/(Pixel*Frame)             : 0.225
Stream size                    : 950 MiB (80%)
Writing library                : XviD 64

Audio
ID                             : 1
Format                         : AC-3
Format/Info                    : Audio Coding 3
Mode extension                 : CM (complete main)
Format settings, Endianness    : Big
Codec ID                       : 2000
Duration                       : 1h 25mn
Source duration                : 1h 25mn
Bit rate mode                  : Constant
Bit rate                       : 384 Kbps
Channel(s)                     : 6 channels
Channel positions              : Front: L C R, Side: L R, LFE
Sampling rate                  : 48.0 KHz
Bit depth                      : 16 bits
Compression mode               : Lossy
Stream size                    : 235 MiB (20%)
Alignment                      : Aligned on interleaves
Interleave, duration           : 32 ms (0.77 video frame)

Podobne torrenty
[DivX - XviD] Wyborcze jaja - The Campaign *2012* [DVDRip.XViD] [Lektor PL]
[DivX - XviD] Wyborcze jaja - The Campaign *2012* [BRRip.XviD] [Lektor PL]
[DivX - XviD] Wyborcze jaja - The Campaign *2012* [BRRip.XviD] [Napisy PL]
[DivX - XviD] Tysiąc słów - A Thousand Words *2012* [DVDRip] [XviD-torentup] [Lektor PL]
[HDTV-HD] Z pamietnika Marilyn Monroe - Love Marilyn (2012) [HDTV] [XViD-torentup] [Lektor PL]
[DivX - XviD] Kosmiczne jaja - Spaceballs (1987) [DVDRip.XviD] [Lektor PL]
[DivX - XviD] Jaja w Tropikach - Tropic Thunder (2008) [DVDRip.XviD] [Lektor PL]
[DivX - XviD] Jaja w tropikach - Tropic Thunder (2008) [DVDRip.XviD] [Lektor PL]
[DivX - XviD] K-9 (1989) [DVDRip][XviD-torentup] [Lektor PL]
[Dla Dzieci] Pocahontas (1995)[DVDRip][Xvid-torentup][Lektor PL]
Szczegóły torrenta
Trackerhttp://tracker.filetracker.pl:8089/announce
Multitracker http://tracker.filetracker.pl:8089/announce
http://tracker.free-torrents.pl/announce
http://tracker.streettorrent.pl:80/announce
http://tracker.torrenty.org:6969/announce
http://tracker.aletorrenty.pl:2710/announce
http://tracker.pubt.net:2710/announce
http://94.228.192.98/announce
http://www.tlv.cc:7777/announce
http://retracker.omsk.ru:2710/announce
http://tracker.immortaltorrent.pl/announce
udp://open.demonii.com:1337/announce
http://tracker.best-torrents.net:6969/announce
udp://torrent.gresille.org:80/announce
udp://9.rarbg.me:2710/announce
udp://eddie4.nl:6969/announce
udp://tracker.leechers-paradise.org:6969/announce
udp://tracker4.piratux.com:6969/announce
udp://www.eddie4.nl:6969/announce
udp://tracker.openbittorrent.com:80/announce
udp://tracker.publicbt.com:80/announce
udp://ipv4.tracker.harry.lu:80/announce
udp://tracker.publicbt.com/announce
udp://shadowshq.eddie4.nl:6969/announce
udp://9.rarbg.com:2710/announce
udp://11.rarbg.com:80/announce
udp://10.rarbg.com/announce
udp://tracker.istole.it:80/announce
udp://exodus.desync.com:6969
udp://tracker.prq.to/announce
udp://tracker.openbittorrent.com:80/announce
udp://tracker.publicbt.com:80/announce

Kategoria:Filmy » DivX - XviD
Dodane11/01/2017 02:01:30
Ostatnie Uaktualnienie11/01/2017 23:01:18
Pokaż/Ukryj pliki:
3 plików
NIKT JESZCZE NIE DODAŁ KOMENTARZA

DODAJ KOMENTARZ
Więcej Emoticon



Wstecz

Żaden z opisanych na stronie plików nie jest przetrzymywany na serwerze. Administrator strony immortaltorrent.pl nie może ponieść konsekwencji prawnych za to co użytkownicy zamieszczają lub piszą na stronie.
Nie możesz używać tego serwisu do rozpowszechniania lub ściągania materiałów do których nie masz odpowiednich praw lub licencji. Użytkownicy zobowiązani są do przestrzeganie tych zasad.
Rejestracja konta jest jednoznaczna z akceptacją zasad.

2017 © immortaltorrent.pl


Najlepsze strony Torrentowe