Torrentów: 134099      Ranga: Gość               Stwórz konto Odzyskiwanie hasła


Kategorie
Filmy
 ⇒ DivX - XviD
 ⇒ RMVB
 ⇒ DVD-R
 ⇒ TV + Seriale
 ⇒ HDTV-HD
 ⇒ VCD - SVCD
 ⇒ x 264
 ⇒  3D
Gry
 ⇒ Gry PC
 ⇒ Gry Konsole
 ⇒ xbox360
Muzyka
 ⇒ Muzyka
 ⇒ Teledyski/Koncerty
Książki - Komiksy
 ⇒ E-Booki + Audio
 ⇒ Komiksy
Inne
 ⇒ XXX
 ⇒ Dla Dzieci
 ⇒ Sport
 ⇒ Pozostałe - Różne
 ⇒ Manga - Anime
 ⇒ GSM - PDA
Aplikacje
 ⇒ Windows
 ⇒ Linux + Macintosh



Detale torrenta

Gamoń Le Corniaud (1965) [AC3][BRRip][XviD-torentup] [Lektor PL]
Kondycja:
Dodane: 03/06/2016
Rozmiar: 1.88 GB
Uploader: torentup

seed(ów): 6
leecher(ów): 2
Pobrane: 47





Ocena: N/A

=====================
INFO
================

Polski tytuł: Gamoń
Oryginalny tytuł: Le Corniaud
Produkcja: Francja, Włochy
Gatunek: Komedia
Data premiery: 1965-03-24 (Świat)
Reżyseria: Gérard Oury
Scenariusz: Marcel Jullian, Gérard Oury

Filmweb:
http://www.filmweb.pl/film/Gamo%C5%84-1965-30897

=====================
OPIS
====================

Szacowny obywatel francuski planuje urlop i zamierza swoje plany zrealizować jako turysta samochodowy. Niestety, w wypadku, samochód bohatera zostaje rozbity. Sprawca wypadku oddaje poszkodowanemu swoją luksusową limuzynę, która w zamaskowany sposób naszpikowana jest towarem przemytników. Wakacyjny wojaż obfituje w fantastyczne gagi uznanych komików francuskich.

=====================
OBSADA
====================

Bourvil ... Antoine Marechal
Louis de Funes ... Leopold Saroyan
Venantino Venantini ... Mickey
Henri Génes ... Martial
Beba Loncar ... Ursula, the nudist
Saro Urzi ... Tagliella
Alida Chelli ... Gina, la manucure / Gina, the manucurist
Lando Buzzanca ... Lino
Jack Ary ... Le douanier-chef
Pierre Roussel ... Mario Costa

=====================
DANE TECHNICZNE
=====================

Format                         : AVI
Format/Info                    : Audio Video Interleave
File size                      : 1.88 GiB
Duration                       : 1h 50mn
Overall bit rate               : 2 430 Kbps
Writing application            : VirtualDubMod 1.5.10.2 (build 2540/release)
Writing library                : VirtualDubMod build 2540/release

Video
ID                             : 0
Format                         : MPEG-4 Visual
Format profile                 : Advanced Simple@L5
Format settings, BVOP          : Yes
Format settings, QPel          : No
Format settings, GMC           : No warppoints
Format settings, Matrix        : Default (MPEG)
Codec ID                       : XVID
Codec ID/Hint                  : XviD
Duration                       : 1h 50mn
Bit rate                       : 2 228 Kbps
Width                          : 720 pixels
Height                         : 304 pixels
Display aspect ratio           : 2.35:1
Frame rate                     : 24.000 fps
Color space                    : YUV
Chroma subsampling             : 4:2:0
Bit depth                      : 8 bits
Scan type                      : Progressive
Compression mode               : Lossy
Bits/(Pixel*Frame)             : 0.424
Stream size                    : 1.72 GiB (92%)
Writing library                : XviD 1.1.2 (UTC 2006-11-01)

Audio
ID                             : 1
Format                         : AC-3
Format/Info                    : Audio Coding 3
Mode extension                 : CM (complete main)
Format settings, Endianness    : Big
Codec ID                       : 2000
Duration                       : 1h 50mn
Bit rate mode                  : Constant
Bit rate                       : 192 Kbps
Channel(s)                     : 2 channels
Channel positions              : Front: L R
Sampling rate                  : 48.0 KHz
Bit depth                      : 16 bits
Compression mode               : Lossy
Stream size                    : 152 MiB (8%)
Alignment                      : Split accross interleaves
Interleave, duration           : 42 ms (1.00 video frame)
Interleave, preload duration   : 500 ms

Podobne torrenty
[DivX - XviD] Gamoń - Le Corniaud *1965* [DVDRip] [XviD] [Lektor PL]
[DivX - XviD] Gamoń - Le Corniaud 1965 [DVDRip.XviD] [Lektor PL]
[RMVB] LOUIS DE FUNES - Gamoń - Le Corniaud *1965* [DVDRip.RMVB] [Lektor PL]
[DivX - XviD] Louis de Funes Collection - Part 6/29 - Gamoń - Le Corniaud *1965* [DVDRip] [DivX] [Napisy PL]
[DivX - XviD] Stretch (2014) [BRRip][XviD-torentup] [Lektor PL]
[DivX - XviD] Uwiązani - Men Women and Children (2014) [BRRip] [XviD-torentup] [Lektor PL]
[Dla Dzieci] Lego Hero Factory (2010)[BRRip][Xvid-torentup][Lektor PL]
[DivX - XviD] Szybcy i wściekli 7 - Furious 7 (2015) [BRRip] [XviD-torentup] [Lektor PL]
[DivX - XviD] Ostatni Sprawiedliwy - Last Man Standing (1996) [BRRip] [XviD-torentup] [Lektor PL]
[DivX - XviD] Duet na żółtych papierach - Are You Here (2013) [BRRip.XviD-torentup] [Lektor PL]
Szczegóły torrenta
Trackerhttp://tracker.filetracker.pl:8089/announce
Multitracker http://tracker.filetracker.pl:8089/announce
http://tracker.free-torrents.pl/announce
http://tracker.streettorrent.pl:80/announce
http://tracker.torrenty.org:6969/announce
http://tracker.aletorrenty.pl:2710/announce
http://tracker.pubt.net:2710/announce
http://94.228.192.98/announce
http://www.tlv.cc:7777/announce
http://tracker.torrenty.org:6969/announce
http://retracker.omsk.ru:2710/announce
http://tracker.immortaltorrent.pl/announce
udp://open.demonii.com:1337/announce
http://tracker.best-torrents.net:6969/announce
udp://torrent.gresille.org:80/announce
udp://9.rarbg.me:2710/announce
udp://eddie4.nl:6969/announce
udp://tracker.leechers-paradise.org:6969/announce
udp://tracker4.piratux.com:6969/announce
udp://www.eddie4.nl:6969/announce
udp://open.demonii.com:1337/announce
udp://tracker.openbittorrent.com:80/announce
udp://tracker.publicbt.com:80/announce
udp://ipv4.tracker.harry.lu:80/announce
udp://tracker.publicbt.com/announce
udp://shadowshq.eddie4.nl:6969/announce
udp://9.rarbg.com:2710/announce
udp://11.rarbg.com:80/announce
udp://10.rarbg.com/announce
udp://tracker.istole.it:80/announce
udp://exodus.desync.com:6969
udp://open.demonii.com:1337/announce
udp://tracker.prq.to/announce

Kategoria:Filmy » DivX - XviD
Dodane03/06/2016 01:06:11
Ostatnie Uaktualnienie07/06/2016 21:29:27
Pokaż/Ukryj pliki:
5 plików
NIKT JESZCZE NIE DODAŁ KOMENTARZA

DODAJ KOMENTARZ
Więcej Emoticon



Wstecz

Żaden z opisanych na stronie plików nie jest przetrzymywany na serwerze. Administrator strony immortaltorrent.pl nie może ponieść konsekwencji prawnych za to co użytkownicy zamieszczają lub piszą na stronie.
Nie możesz używać tego serwisu do rozpowszechniania lub ściągania materiałów do których nie masz odpowiednich praw lub licencji. Użytkownicy zobowiązani są do przestrzeganie tych zasad.
Rejestracja konta jest jednoznaczna z akceptacją zasad.

2017 © immortaltorrent.pl


Najlepsze strony Torrentowe