Torrentów: 143327      Ranga: Gosc               Stwórz konto Odzyskiwanie hasła


Kategorie
Filmy
 ⇒ DivX - XviD
 ⇒ RMVB
 ⇒ DVD-R
 ⇒ TV + Seriale
 ⇒ HDTV-HD
 ⇒ VCD - SVCD
 ⇒ x 264
 ⇒  3D
Gry
 ⇒ Gry PC
 ⇒ Gry Konsole
 ⇒ xbox360
Muzyka
 ⇒ Muzyka
 ⇒ Teledyski/Koncerty
Książki - Komiksy
 ⇒ E-Booki + Audio
 ⇒ Komiksy
Inne
 ⇒ XXX
 ⇒ Dla Dzieci
 ⇒ Sport
 ⇒ Pozostałe - Różne
 ⇒ Manga - Anime
 ⇒ GSM - PDA
Aplikacje
 ⇒ Windows
 ⇒ Linux + Macintosh



Detale torrenta

Jackie Chan Collection Part 80/86 - Golden Lotus *1974* [DVDRip.DivX] [Napisy ENG]
Kondycja:
Dodane: 20/11/2008
Rozmiar: 432.71 MB
Uploader: Anonimowy
seed(ów): 0
leecher(ów): 0
Pobrane: 89





Ocena: N/A

Polski tytu: ?
Oryginalny: Golden Lotus
Produkcja: Hongkong
Gatunek: Dramat, Akcja, Romans
Data premiery: 1974
Reyseria: Han Hsiang Li
Czas trwania: 112 min

Filmweb: 10/10 ( 1 gos )
http://www.filmweb.pl/f124929/Jin+ping+shuang+yan,1974

Opis:

Golden Lotus is based, in part, on Jin Ping Mei, a famous erotic novel of ancient China. Li Han-Hsiang adapted part of the story into this film, which starts with Hsi Men Ching, a successful merchant, wooing Pan Chin Lien, the beautiful wife of one of the townspeople. While there is some promise with this part of the story, the film goes steadily downhill from here.

Obsada:

Jackie Chan: Pear seller (as Chen Yuen Lung)
Shen Chan: Lu Hua, pear seller's killer

Info:

Video
Format : MPEG-4 Visual
Format profile : Simple@L1
Format settings, BVOP : No
Format settings, QPel : No
Format settings, GMC : No warppoints
Format settings, Matrix : Default
Codec ID : DX50
Codec ID/Hint : DivX 5
Duration : 1h 51mn
Bit rate : 375 Kbps
Width : 560 pixels
Height : 224 pixels
Display aspect ratio : 2.500
Frame rate : 23.976 fps
Resolution : 24 bits
Colorimetry : 4:2:0
Scan type : Progressive
Bits/(Pixel*Frame) : 0.125
Stream size : 300 MiB (69%)
Writing library : Lavc51.50.1

Audio
Format : MPEG Audio
Format version : Version 1
Format profile : Layer 3
Codec ID : 55
Codec ID/Hint : MP3
Duration : 1h 51mn
Bit rate mode : Constant
Bit rate : 160 Kbps
Channel(s) : 2 channels
Sampling rate : 44.1 KHz
Resolution : 16 bits
Stream size : 128 MiB (30%)
Alignment : Split accross interleaves
Interleave, duration : 500 ms (11.98 video frames)
Interleave, preload duration : 500 ms
Podobne torrenty
[DivX - XviD] Jackie Chan Collection - Part 83/86 - Jackie Chan: My Story *1998* [DVDRip.XviD] [Napisy ENG]
[DivX - XviD] Jackie Chan Collection - Part 64/73 - Come Drink with Me *1966* [DVDRip] [DivX] [Napisy PL]
[DivX - XviD] Jackie Chan Collection - Part 30/73 - Protector *1985* [DVDRip] [DivX] [Napisy PL]
[DivX - XviD] Jackie Chan Collection - Part 33/73 - Moi kaskaderzy - My Stunts *1999* [DVDRip] [DivX] [Napisy PL]
[DivX - XviD] Jackie Chan Collection - Part 50/73 - Killer Meteors *1976* [DVDRip] [DivX] [Napisy PL]
[DivX - XviD] Jackie Chan Collection - Part 11/64 - Shaolin Wooden Men *1976* [DVDRip] [DivX] [Napisy PL]
[DivX - XviD] Jackie Chan Collection - Part 25/73 - Zgadnij, kim jestem? - Who am I? *1998* [DVDRip] [DivX] [Napisy PL]
[DivX - XviD] Jackie Chan Collection - Part 85/85 - 36 Crazy Fists *1977* [DVDRip.DivX] [Napisy PL]
[DivX - XviD] Jackie Chan Collection - Part 66/73 - Magnificent Bodyguards *1978* [DVDRip] [DivX] [Napisy PL]
[DivX - XviD] Jackie Chan Collection - Part 44/73 - New Fist of Fury *1976* [DVDRip] [DivX] [Napisy PL]
Szczegóły torrenta
Trackerhttp://tracker.torrenty.org:6969/announce
Kategoria:Filmy » DivX - XviD
Dodane20/11/2008 10:11:53
Ostatnie Uaktualnienie13/09/2013 09:32:49
NIKT JESZCZE NIE DODAŁ KOMENTARZA

DODAJ KOMENTARZ
Więcej Emoticon



Wstecz

Żaden z opisanych na stronie plików nie jest przetrzymywany na serwerze. Administrator strony immortaltorrent.pl nie może ponieść konsekwencji prawnych za to co użytkownicy zamieszczają lub piszą na stronie.
Nie możesz używać tego serwisu do rozpowszechniania lub ściągania materiałów do których nie masz odpowiednich praw lub licencji. Użytkownicy zobowiązani są do przestrzeganie tych zasad.
Rejestracja konta jest jednoznaczna z akceptacją zasad.

2018 © immortaltorrent.pl


Najlepsze strony Torrentowe