Torrentów: 137087      Ranga: Gość               Stwórz konto Odzyskiwanie hasła


Kategorie
Filmy
 ⇒ DivX - XviD
 ⇒ RMVB
 ⇒ DVD-R
 ⇒ TV + Seriale
 ⇒ HDTV-HD
 ⇒ VCD - SVCD
 ⇒ x 264
 ⇒  3D
Gry
 ⇒ Gry PC
 ⇒ Gry Konsole
 ⇒ xbox360
Muzyka
 ⇒ Muzyka
 ⇒ Teledyski/Koncerty
Książki - Komiksy
 ⇒ E-Booki + Audio
 ⇒ Komiksy
Inne
 ⇒ XXX
 ⇒ Dla Dzieci
 ⇒ Sport
 ⇒ Pozostałe - Różne
 ⇒ Manga - Anime
 ⇒ GSM - PDA
Aplikacje
 ⇒ Windows
 ⇒ Linux + Macintosh



Detale torrenta

Resident Evil: Vendetta (2017)[BRRip 1080p x264 by alE13 AC3/DTS][Lektor i Napisy PL/Eng][Eng]
Kondycja:
Dodane: 19/07/2017
Rozmiar: 10.67 GB
Uploader: alE13

seed(ów): 1
leecher(ów): 0
Pobrane: 0





Ocena: N/A



http://www.imdb.com/title/tt5776208/
http://www.filmweb.pl/film/Biohazard%3A+Vendetta-2017-757780

Plik zawiera Sample.
Audio DTS w osobnym pliku.


reżyseria: Takanori Tsujimoto
scenariusz: Makoto Fukami
gatunek: Horror,Anime
produkcja: Japonia
premiera: 27-05-2017
muzyka:         Kenji Kawai
czas:           01:37:14

opis:

Chris Redfield enlists the help of Leon S. Kennedy and Rebecca Chambers to stop a death merchant,
with a vengeance, from spreading a deadly virus in New York.

Grupa bohaterów próbuje za wszelką cenę powstrzymać szaleńca, który chce rozprzestrzenić śmiertelnie
niebezpiecznego wirusa w Nowym Jorku.

http://i.imgur.com/M7aJFTz.jpg
http://i.imgur.com/xXTqp9c.jpg
http://i.imgur.com/jCIol3i.jpg
http://i.imgur.com/Kyv679b.jpg

obsada:

Kevin Dorman, Matthew Mercer, Erin Cahill (voice)

dane techniczne:

Audio:

Resident Evil- Vendetta (2017)-alE13_DTS.mka

Hash: ADACF07AD4332A5E
Format: Matroska
Czas: 01:37:14.838
Rozmiar: 2.81 GiB (3019759143)

Audio (0):
Kodek:         (DTS-HD) DTS-HD
Format:       DTS
Kanały:       6 channels
BitRate:       4 137 kb/s / 1 509 kb/s
Tytuł:         Resident Evil- Vendetta (2017)-alE13_DTS
Język:       English

Movie:

Resident Evil- Vendetta (2017)-alE13.mkv
Format                      : Matroska
Format version              : Version 4 / Version 2
File size                   : 7.81 GiB
Duration                    : 1 h 37 min
Overall bit rate            : 11.5 Mb/s
Movie name                  : Resident Evil: Vendetta (2017)-alE13
Encoded date                : UTC 2017-07-19 05:50:51
Writing application         : mkvmerge v8.1.0 ('Psychedelic Postcard') 64bit
Writing library             : libebml v1.3.1 + libmatroska v1.4.2
Cover                       : Yes
Attachments                 : Cover.jpg

Video
ID                          : 1
Format                      : AVC
Format/Info                 : Advanced Video Codec
Format profile              : High@L4.1
Format settings, CABAC      : Yes
Format settings, ReFrames   : 2 frames
Codec ID                    : V_MPEG4/ISO/AVC
Duration                    : 1 h 37 min
Bit rate                    : 10.6 Mb/s
Width                       : 1 920 pixels
Height                      : 1 080 pixels
Display aspect ratio        : 16:9
Frame rate mode             : Constant
Frame rate                  : 23.976 (24000/1001) FPS
Color space                 : YUV
Chroma subsampling          : 4:2:0
Bit depth                   : 8 bits
Scan type                   : Progressive
Bits/(Pixel*Frame)          : 0.213
Stream size                 : 7.19 GiB (92%)
Title                       : Resident Evil: Vendetta (2017)-alE13
Writing library             : x264 core 142
Default                     : Yes
Forced                      : No
Color range                 : Limited
Color primaries             : BT.709
Transfer characteristics    : BT.709
Matrix coefficients         : BT.709

Audio #1
ID                          : 2
Format                      : AC-3
Format/Info                 : Audio Coding 3
Mode extension              : CM (complete main)
Format settings, Endianness : Big
Codec ID                    : A_AC3
Duration                    : 1 h 37 min
Bit rate mode               : Constant
Bit rate                    : 448 kb/s
Channel(s)                  : 6 channels
Channel positions           : Front: L C R, Side: L R, LFE
Sampling rate               : 48.0 kHz
Frame rate                  : 31.250 FPS (1536 spf)
Compression mode            : Lossy
Stream size                 : 311 MiB (4%)
Title                       : Resident Evil: Vendetta (2017)-alE13_AC3
Language                    : English
Default                     : No
Forced                      : No

Audio #2
ID                          : 3
Format                      : AC-3
Format/Info                 : Audio Coding 3
Mode extension              : CM (complete main)
Format settings, Endianness : Big
Codec ID                    : A_AC3
Duration                    : 1 h 37 min
Bit rate mode               : Constant
Bit rate                    : 448 kb/s
Channel(s)                  : 6 channels
Channel positions           : Front: L C R, Side: L R, LFE
Sampling rate               : 48.0 kHz
Frame rate                  : 31.250 FPS (1536 spf)
Compression mode            : Lossy
Delay relative to video     : 1 s 200 ms
Stream size                 : 311 MiB (4%)
Title                       : Resident Evil: Vendetta (2017)-alE13_AC3
Language                    : Polish
Default                     : Yes
Forced                      : No

Text #1
ID                          : 4
Format                      : UTF-8
Codec ID                    : S_TEXT/UTF8
Codec ID/Info               : UTF-8 Plain Text
Duration                    : 1 h 35 min
Bit rate                    : 26 b/s
Count of elements           : 588
Stream size                 : 18.3 KiB (0%)
Title                       : Resident Evil: Vendetta (2017)-alE13
Language                    : Polish
Default                     : No
Forced                      : No

Text #2
ID                          : 5
Format                      : UTF-8
Codec ID                    : S_TEXT/UTF8
Codec ID/Info               : UTF-8 Plain Text
Duration                    : 1 h 31 min
Bit rate                    : 33 b/s
Count of elements           : 763
Stream size                 : 22.7 KiB (0%)
Title                       : Resident Evil-Vendetta (2017)-alE13_SRT
Language                    : English
Default                     : No
Forced                      : No

Text #3
ID                          : 6
Format                      : PGS
Muxing mode                 : zlib
Codec ID                    : S_HDMV/PGS
Codec ID/Info               : Picture based subtitle format used on BDs/HD-DVDs
Duration                    : 1 h 36 min
Bit rate                    : 8 225 b/s
Count of elements           : 1529
Stream size                 : 5.67 MiB (0%)
Title                       : Resident Evil-Vendetta (2017)-alE13_PGS
Language                    : English
Default                     : No
Forced                      : No

Menu
00:00:00.000                : en:00:00:00.000
00:01:57.492                : en:00:01:57.492
00:11:47.624                : en:00:11:47.624
00:17:51.945                : en:00:17:51.946
00:25:12.261                : en:00:25:12.261
00:31:00.567                : en:00:31:00.567
00:36:43.118                : en:00:36:43.118
00:42:49.841                : en:00:42:49.817
00:48:21.005                : en:00:48:20.981
00:53:50.890                : en:00:53:50.853
00:58:51.064                : en:00:58:51.027
01:06:58.635                : en:01:06:58.598
01:11:38.873                : en:01:11:38.836
01:15:13.087                : en:01:15:13.050
01:21:41.725                : en:01:21:41.688
01:29:38.784                : en:01:29:38.748
Podobne torrenty
[ 3D] Resident Evil: Ostatni Rozdział-Resident Evil: The Final Chapter 3D (2016)[BRRip 1080p x264 by alE13 AC3/DTS][Lektor i Napisy PL/Eng][Eng]
[HDTV-HD] Resident Evil: Ostatni Rozdział-Resident Evil: The Final Chapter (2016)[WEBRip 1080p x264 by alE13 AC3][Lektor IVO i Napisy PL/Eng][Eng]
[HDTV-HD] Bałkańska Vendetta-Kill\'em All (2017)[BRRip 1080p x264 by alE13 AC3/DTS][Lektor i Napisy PL & Multi][Eng]
[x 264] Resident Evil 2: Apokalipsa - Resident Evil: Apocalypse *2004* [1080p.bluray.x264.xbus] [LEKTOR PL]
[HDTV-HD] Harjunpää i kapłan zła-Priest of Evil (2010)[BRRip 1080p x264 by alE13 AC3/DTS][Lektor i Napisy PL/Eng/Fin][Fin]
[HDTV-HD] Szybcy i wściekli 8-The Fate of the Furious (2017)-alE13[BRRip 1080p x264 by alE13 AC3/DTS]Napisy PL/Eng][Eng]
[ 3D] Mumia-The Mummy 3D (2017)[BRRip 1080p x264 by alE13 AC3/DTS][Lektor i Napisy PL/Eng][Eng]
[ 3D] xXx: Reaktywacja-xXx: Return of Xander Cage 3D (2017)[BRRip 1080p x264 by alE13 AC3/DTS][Lektor i Napisy PL/Eng][Eng]
[HDTV-HD] Aftermath (2017)[BRRip 1080p x264 by alE13 AC3][Napisy PL/Eng][Eng]
[HDTV-HD] Ochroniarz-Security (2017)[BRRip 1080p x264 by alE13 AC3/DTS][Napisy PL/Eng/Fre][Eng]
Szczegóły torrenta
Trackerhttp://tracker.devil-torrents.pl/announce
Multitracker http://tracker.devil-torrents.pl/announce
http://tracker.torrentyorg.pl/announce
udp://tracker.opentrackr.org:1337/announce
udp://tracker.leechers-paradise.org:6969/announce
udp://tracker.ilibr.org:80/announce
udp://tracker.coppersurfer.tk:6969/announce
udp://p4p.arenabg.ch:1337/announce
udp://inferno.demonoid.pw:3391/announce

Kategoria:Filmy » HDTV-HD
Dodane19/07/2017 08:07:07
Ostatnie Uaktualnienie19/07/2017 08:29:07
Pokaż/Ukryj pliki:
15 plików
NIKT JESZCZE NIE DODAŁ KOMENTARZA

DODAJ KOMENTARZ
Więcej Emoticon



Wstecz

Żaden z opisanych na stronie plików nie jest przetrzymywany na serwerze. Administrator strony immortaltorrent.pl nie może ponieść konsekwencji prawnych za to co użytkownicy zamieszczają lub piszą na stronie.
Nie możesz używać tego serwisu do rozpowszechniania lub ściągania materiałów do których nie masz odpowiednich praw lub licencji. Użytkownicy zobowiązani są do przestrzeganie tych zasad.
Rejestracja konta jest jednoznaczna z akceptacją zasad.

2017 © immortaltorrent.pl


Najlepsze strony Torrentowe