Torrentów: 134924      Ranga: Gość               Stwórz konto Odzyskiwanie hasła


Kategorie
Filmy
 ⇒ DivX - XviD
 ⇒ RMVB
 ⇒ DVD-R
 ⇒ TV + Seriale
 ⇒ HDTV-HD
 ⇒ VCD - SVCD
 ⇒ x 264
 ⇒  3D
Gry
 ⇒ Gry PC
 ⇒ Gry Konsole
 ⇒ xbox360
Muzyka
 ⇒ Muzyka
 ⇒ Teledyski/Koncerty
Książki - Komiksy
 ⇒ E-Booki + Audio
 ⇒ Komiksy
Inne
 ⇒ XXX
 ⇒ Dla Dzieci
 ⇒ Sport
 ⇒ Pozostałe - Różne
 ⇒ Manga - Anime
 ⇒ GSM - PDA
Aplikacje
 ⇒ Windows
 ⇒ Linux + Macintosh



Detale torrenta

Kong: Wyspa Czaszki-Kong: Skull Island (2017)[WEBRip 1080p x264 by alE13 AC3][Lektor i Napisy PL][Eng]
Kondycja:
Dodane: 23/06/2017
Rozmiar: 8.00 GB
Uploader: alE13

seed(ów): 1
leecher(ów): 1
Pobrane: 0





Ocena: N/A

[img]https://i.imgur.com/tSXmNWQ.jpg[/img]

http://www.filmweb.pl/film/Kong%3A+Wyspa+Czaszki-2017-719066
http://www.imdb.com/title/tt3731562/

Plik zawiera Sample.

reżyseria: Jordan Vogt-Roberts
scenariusz: Max Borenstein,Dan Gilroy,Derek Connolly
gatunek: Fantasy,Przygodowy
produkcja: USA
premiera: 28-02-2017
muzyka:         Henry Jackman
zdjęcia:        Larry Fong
czas:           1 h 58 min

opis:

A team of scientists explore an uncharted island in the Pacific, venturing into the domain of the mighty Kong,
and must fight to escape a primal Eden.

Grupa odkrywców trafia na wyspę zamieszkałą przez mitycznego Konga, ich misja badawcza zamienia się w walkę
o przetrwanie.

Film Vogta-Robertsa to blisko dwugodzinny rollercoaster atrakcji łączący w idealnych proporcjach wysokooktanową
akcję, ducha przygody oraz szczyptę makabry. Potworny zwierzyniec prezentuje się nad wyraz okazale, spece od
montażu i efektów specjalnych zasłużyli na nominację do Oscara, a wiele skomponowanych z malarskim zacięciem
kadrów zasługuje na oprawienie w ramkę. Król nie mógł wymarzyć sobie lepszego powrotu na ekrany.

https://i.imgur.com/wKt6QV1.jpg
https://i.imgur.com/x4PpbPl.jpg
https://i.imgur.com/kQzQ056.jpg
https://i.imgur.com/FEtRV6A.jpg

obsada:

Tom Hiddleston, Samuel L. Jackson, Brie Larson

dane techniczne:

Kong-Skull Island (2017)-alE13.mkv
Format                      : Matroska
Format version              : Version 4 / Version 2
File size                   : 7.95 GiB
Duration                    : 1 h 58 min
Overall bit rate            : 9 611 kb/s
Movie name                  : Kong: Skull Island (2017)-alE13
Encoded date                : UTC 2017-06-23 04:09:20
Writing application         : mkvmerge v8.1.0 ('Psychedelic Postcard') 64bit
Writing library             : libebml v1.3.1 + libmatroska v1.4.2
Cover                       : Yes
Attachments                 : Cover.jpg

Video
ID                          : 1
Format                      : AVC
Format/Info                 : Advanced Video Codec
Format profile              : High@L4.1
Format settings, CABAC      : Yes
Format settings, ReFrames   : 2 frames
Codec ID                    : V_MPEG4/ISO/AVC
Duration                    : 1 h 58 min
Bit rate                    : 8 968 kb/s
Width                       : 1 912 pixels
Height                      : 792 pixels
Display aspect ratio        : 2.40:1
Frame rate mode             : Constant
Frame rate                  : 23.976 (24000/1001) FPS
Color space                 : YUV
Chroma subsampling          : 4:2:0
Bit depth                   : 8 bits
Scan type                   : Progressive
Bits/(Pixel*Frame)          : 0.247
Stream size                 : 7.41 GiB (93%)
Title                       : Kong: Skull Island (2017)-alE13
Writing library             : x264 core 142
Default                     : Yes
Forced                      : No
Color range                 : Limited
Color primaries             : BT.709
Transfer characteristics    : BT.709
Matrix coefficients         : BT.709

Audio #1
ID                          : 2
Format                      : AC-3
Format/Info                 : Audio Coding 3
Mode extension              : CM (complete main)
Format settings, Endianness : Big
Codec ID                    : A_AC3
Duration                    : 1 h 58 min
Bit rate mode               : Constant
Bit rate                    : 448 kb/s
Channel(s)                  : 6 channels
Channel positions           : Front: L C R, Side: L R, LFE
Sampling rate               : 48.0 kHz
Frame rate                  : 31.250 FPS (1536 spf)
Compression mode            : Lossy
Stream size                 : 379 MiB (5%)
Title                       : Kong: Skull Island (2017)-alE13_AC3
Language                    : English
Default                     : No
Forced                      : No

Audio #2
ID                          : 3
Format                      : AC-3
Format/Info                 : Audio Coding 3
Mode extension              : CM (complete main)
Format settings, Endianness : Big
Codec ID                    : A_AC3
Duration                    : 1 h 58 min
Bit rate mode               : Constant
Bit rate                    : 192 kb/s
Channel(s)                  : 2 channels
Channel positions           : Front: L R
Sampling rate               : 48.0 kHz
Frame rate                  : 31.250 FPS (1536 spf)
Compression mode            : Lossy
Stream size                 : 163 MiB (2%)
Title                       : Kong: Skull Island (2017)-alE13_AC3
Language                    : Polish
Default                     : Yes
Forced                      : No

Text
ID                          : 4
Format                      : UTF-8
Codec ID                    : S_TEXT/UTF8
Codec ID/Info               : UTF-8 Plain Text
Duration                    : 1 h 57 min
Bit rate                    : 36 b/s
Count of elements           : 1244
Stream size                 : 31.3 KiB (0%)
Title                       : Kong: Skull Island (2017)-alE13
Language                    : Polish
Default                     : Yes
Forced                      : No

Menu
00:00:00.000                : en:1
00:08:54.000                : en:2
00:19:51.000                : en:3
00:30:00.000                : en:4
00:40:00.000                : en:5
00:50:12.028                : en:6
01:00:49.057                : en:7
01:10:29.057                : en:8
01:18:05.057                : en:9
01:30:12.057                : en:10
01:39:09.057                : en:11
01:47:05.057                : en:12
Podobne torrenty
[ 3D] Kong: Wyspa Czaszki-Kong: Skull Island 3D (2017)BRRip 1080p x264 by alE13 AC3/DTS][Lektor i Napisy PL][Eng]
[ 3D] Kong: Wyspa Czaszki - Kong.Skull.Island.*2017* [1080p] [3D] [BluRay] [Half-SBS.x264.TrueHD.7.1.Atmos-FGT] [Lektor Pl] [zibi6248]
[x 264] Kong Wyspa Czaszki / Kong Skull Island (2017) [HDRip.x264-NoGrp] [Lektor PL IVO]
[x 264] Kong: Wyspa Czaszki / Kong: Skull Island (2017) [MULTI] [BluRay] [720p] [x264-LTN] [Lektor PL]
[DivX - XviD] Kong: Wyspa Czaszki - Kong: Skull Island *2017* [720p] [HC.HDRip] [XViD.AC3-MORS] [NAPISY PL] [zibi6248]
[HDTV-HD] Mumia-The Mummy (2017)[WebRip 1080p x264 by alE13 AC3][Lektor i Napisy PL/Eng][Eng]
[HDTV-HD] Hickok (2017)[WEBRip 1080p x264 by alE13 AC3][Napisy PL][Eng]
[HDTV-HD] Przyciąganie-Attraction (2017)[WEBRip 1080p x264 by alE13 AC3][Napisy PL/Eng][Eng]
[HDTV-HD] Kradzież-Larceny (2017)[WEBRip 1080p x264 by alE13 AC3][Napisy PL][Eng]
[x 264] Król Artur: Legenda Miecza-King Arthur: Legend of the Sword (2017)[WEBRip 1080p x264 by alE13 AC3][Napisy PL][Eng]
Szczegóły torrenta
Trackerhttp://tracker.devil-torrents.pl/announce
Multitracker http://tracker.devil-torrents.pl/announce
http://tracker.torrentyorg.pl/announce
udp://tracker.opentrackr.org:1337/announce
udp://tracker.leechers-paradise.org:6969/announce
udp://tracker.ilibr.org:80/announce
udp://tracker.coppersurfer.tk:6969/announce
udp://p4p.arenabg.ch:1337/announce
udp://inferno.demonoid.pw:3391/announce

Kategoria:Filmy » HDTV-HD
Dodane23/06/2017 06:06:08
Ostatnie Uaktualnienie23/06/2017 06:54:08
Pokaż/Ukryj pliki:
16 plików
NIKT JESZCZE NIE DODAŁ KOMENTARZA

DODAJ KOMENTARZ
Więcej Emoticon



Wstecz

Żaden z opisanych na stronie plików nie jest przetrzymywany na serwerze. Administrator strony immortaltorrent.pl nie może ponieść konsekwencji prawnych za to co użytkownicy zamieszczają lub piszą na stronie.
Nie możesz używać tego serwisu do rozpowszechniania lub ściągania materiałów do których nie masz odpowiednich praw lub licencji. Użytkownicy zobowiązani są do przestrzeganie tych zasad.
Rejestracja konta jest jednoznaczna z akceptacją zasad.

2017 © immortaltorrent.pl


Najlepsze strony Torrentowe