Torrentów: 144028      Ranga: Gosc               Stwórz konto Odzyskiwanie hasła


Kategorie
Filmy
 ⇒ DivX - XviD
 ⇒ RMVB
 ⇒ DVD-R
 ⇒ TV + Seriale
 ⇒ HDTV-HD
 ⇒ VCD - SVCD
 ⇒ x 264
 ⇒  3D
Gry
 ⇒ Gry PC
 ⇒ Gry Konsole
 ⇒ xbox360
Muzyka
 ⇒ Muzyka
 ⇒ Teledyski/Koncerty
Książki - Komiksy
 ⇒ E-Booki + Audio
 ⇒ Komiksy
Inne
 ⇒ XXX
 ⇒ Dla Dzieci
 ⇒ Sport
 ⇒ Pozostałe - Różne
 ⇒ Manga - Anime
 ⇒ GSM - PDA
Aplikacje
 ⇒ Windows
 ⇒ Linux + Macintosh



Detale torrenta

Robbie Williams - Morning Sun
Kondycja:
Dodane: 25/03/2010
Rozmiar: 29.42 MB
Uploader: Anonimowy
seed(ów): 1
leecher(ów): 1
Pobrane: 230





Ocena: N/A

General

Format            : AVI
Format/Info       : Audio Video Interleave
File size         : 29.4 MiB
Duration          : 3mn 56s
Overall bit rate  : 1 045 Kbps

Video

Format            : S-Mpeg 4 v2
Codec ID          : MP42
Codec ID/Info     : Microsoft MPEG-4 V2
Duration          : 3mn 55s
Bit rate          : 906 Kbps
Width             : 854 pixels
Height            : 480 pixels
Display aspect ratio: 16:9
Frame rate        : 29.970 fps
Bits/(Pixel*Frame): 0.074
Stream size       : 25.4 MiB (86%)

Audio

ID                : 1
Format            : MPEG Audio
Format version    : Version 1
Format profile    : Layer 3
Mode              : Joint stereo
Format_Settings_ModeExtension: MS Stereo
Codec ID          : 55
Codec ID/Hint     : MP3
Duration          : 3mn 56s
Bit rate mode     : Constant
Bit rate          : 128 Kbps
Channel(s)        : 2 channels
Sampling rate     : 44.1 KHz
Stream size       : 3.60 MiB (12%)
Alignment       : Aligned on interleaves
Interleave,duration: 26 ms (0.78 video frame)
Podobne torrenty
[Teledyski/Koncerty] The Robbie Williams Show
[Muzyka] Robbie Williams - Bodie
[Teledyski/Koncerty] Robbie Williams Live at Knebworth
[Muzyka] Robbie Williams - Rudebox[2006][CD+2 SkidVids+Cov]
[Muzyka] Greatest Hits - Robbie Williams [2004] [mp3@320]
[Teledyski/Koncerty] Robbie Williams - Rudge Box [ 704x400] [HDRip]
[Muzyka] Robbie Williams - Rudebox (2008) [mp3@320kbps]
[Teledyski/Koncerty] Robbie Williams: Live at the Albert ([DivX - Eng Ac3]Pop - Swing)
[Teledyski/Koncerty] Robbie Williams - Live At The Royal Albert Hall
[Teledyski/Koncerty] Robbie Williams - Live in London (2009) [DVDRip.XviD] [ENG]
Szczegóły torrenta
Trackerhttp://www.psychocydd.co.uk:2710/announce
Kategoria:Muzyka » Teledyski/Koncerty
Dodane25/03/2010 06:03:58
Ostatnie Uaktualnienie26/01/2013 11:27:46
NIKT JESZCZE NIE DODAŁ KOMENTARZA

DODAJ KOMENTARZ
Więcej Emoticon



Wstecz

Żaden z opisanych na stronie plików nie jest przetrzymywany na serwerze. Administrator strony immortaltorrent.pl nie może ponieść konsekwencji prawnych za to co użytkownicy zamieszczają lub piszą na stronie.
Nie możesz używać tego serwisu do rozpowszechniania lub ściągania materiałów do których nie masz odpowiednich praw lub licencji. Użytkownicy zobowiązani są do przestrzeganie tych zasad.
Rejestracja konta jest jednoznaczna z akceptacją zasad.

2018 © immortaltorrent.pl


Najlepsze strony Torrentowe