Torrentów: 145890      Ranga: Gosc               Stwórz konto Odzyskiwanie hasła


Kategorie
Filmy
 ⇒ DivX - XviD
 ⇒ RMVB
 ⇒ DVD-R
 ⇒ TV + Seriale
 ⇒ HDTV-HD
 ⇒ VCD - SVCD
 ⇒ x 264
 ⇒  3D
Gry
 ⇒ Gry PC
 ⇒ Gry Konsole
 ⇒ xbox360
Muzyka
 ⇒ Muzyka
 ⇒ Teledyski/Koncerty
Książki - Komiksy
 ⇒ E-Booki + Audio
 ⇒ Komiksy
Inne
 ⇒ XXX
 ⇒ Dla Dzieci
 ⇒ Sport
 ⇒ Pozostałe - Różne
 ⇒ Manga - Anime
 ⇒ GSM - PDA
Aplikacje
 ⇒ Windows
 ⇒ Linux + Macintosh



Detale torrenta

Taniec Zmys³ów 3D - Step Up 3D *2010* [TS.XVID] [ENG]
Kondycja:
Dodane: 18/08/2010
Rozmiar: 948.79 MB
Uploader: Anonimowy
seed(ów): 491
leecher(ów): 75
Pobrane: 59890





Ocena:

Opis:
producent.....: USA    
rodzaj.......: Romans, Muzyczny, Dramat    
Premiera.: 06.07.2010 [¦wiat]    
Re¿yseria.....: Jon Chu    
fabula....: Amy Andelson    
dlugosc..: 99 min.    
More..........: http:  www.imdb.com title tt1193631    
Trailer.......: http:  www.youtube.com watch?v=hIMfUbRLLuM    
 
Opis :    
Luke (Rick Malam i) jest tancerzem ulicznym. Jego dom to stary magazyn w Nowym Jorku. Miejsce to jest rajem dla m³odych ludzi z ca³ego ¶wiata, którzy kochaj± taniec i muzykê. Jedyn± rodzin± Luke& 8217;a s± cz³onkowie grupy House of Pirates, z którymi codziennie æwiczy, aby pokonaæ swoich odwiecznych rywali z konkuruj±cej ekipy House of Samurai. Nieub³aganie zbli¿a siê wielki dzieñ miêdzynarodowych mistrzostw w tañcu. Luke wyrusza w miasto na poszukiwanie nowych, utalentowanych tancerzy, którzy pomog± mu wzbogaciæ sk³ad jego grupy i tym samym zwiêksz± szansê na wygranie g³ównej nagrody w turnieju.    
 
aktorzy :    
Rick Malam i ... Luke    
Adam G. Sevani ... Moose    
Sharni Vinson ... Natalie    
Alyson Stoner ... Camille    
Keith Stallworth ... Jacob    
Kendra Andrews ... Anala    
Stephen Boss ... Jason (as Stephen & 039;tWitch& 039; Boss)    
Martin Lombard ... The Santiago Twins    
Facundo Lombard ... The Santiago Twins    
Oren Michaeli ... Carlos    
Joe Slaughter ... Julien    
Daniel Cloud Campos ... Kid Darkness    
Aja George ... The Ticks    
Straphanio Shonnie Solomon ... The Ticks    
Terence Dickson ... The Ticks    
 
http://i33.tinypic.com/m8mckl.jpg  
http://i33.tinypic.com/28a6pky.jpg  
http://i38.tinypic.com/9pm89h.jpg
http://i33.tinypic.com/1z6a79z.jpg
http://i35.tinypic.com/308xppj.jpg  
http://i37.tinypic.com/xkn9eh.jpg  
 
gatunekrama | Music | Romance    
Language:English    
IMDb:http:  www.imdb.com title tt1193631      
Source: RUS.Thanks    
Source audio:Boobies.Thanks    

General    
Complete name : Step Up 3D 2010 TS XVID FEEL-FREE    
Format : AVI    
Format Info : Audio Video Interleave    
File size : 947 MiB    
Duration : 1h 38mn    
Overall bit rate : 1 341 Kbps    

Video    
Format : xvid    
Codec ID : xvid    
Duration : 1h 38mn    
Bit rate : 1 200 Kbps    
Width : 688 pixels    
Height : 288 pixels    
Display aspect ratio : 2.35:1    
Frame rate : 29.970 fps    
Resolution : 24 bits    
Bits (Pixel*Frame) : 0.202    
Stream size : 847 MiB (89%)    

Audio    
ID : 1    
Format : MPEG Audio    
Format version : Version 1    
Format profile : Layer 3    
Format settings, Mode : Joint stereo   MS Stereo    
Codec ID : 55    
Codec ID Hint : MP3    
Duration : 1h 38mn    
Bit rate mode : Constant    
Bit rate : 128 Kbps    
Channel(s) : 2 channels    
Sampling rate : 44.1 KHz    
Resolution : 16 bits    
Stream size : 90.4 MiB (10%)    
Alignment : Aligned on interleaves    
Interleave, duration : 26 ms (0.78 video frame)    
Interleave, preload duration : 26 ms    

Plot:    
A tight-knit group of New York City street dancers, including Luke (Malam i) and Natalie (Vinson), team up with NYU freshman Moose (Sevani)
 
Podobne torrenty
[DivX - XviD] Taniec Zmys³ów 3 - Step UP 3 *2010* [DVDRiP.XViD] [Lektor PL]
[RMVB] Taniec zmys³ów 3D - Step Up 3D *2010* [TS.RMVB] [ENG]
[RMVB] Step Up - Taniec zmys³ów & Step Up 2: The Streets *2006-2008* [DVDRip.RMVB] [Lektor PL]
[DivX - XviD] Taniec Zmys³ów - Step Up *2006* [DVDRip.XVID] [Lektor PL]
[DivX - XviD] Step Up Taniec Zmys³ów (Lektor)
[x 264] Step Up - Taniec zmys³ów *2006* [1080p.BluRay.x26]
[DVD-R] Taniec zmys³ów - Step Up (2006) [DVD5] [Lektor i napisy PL]
[RMVB] Step Up - taniec zmys³ów *2006* [DVDRip] [RMVB] [Napisy PL]
[RMVB] Step Up 1-2 - Taniec zmys³ów 1-2 *2006-2008* [DVDRip.RMVB] [Lektor PL]
[DVD-R] Taniec Zmys³ów 2 - Step Up 2 the Streets *2008* [DVD5] [Lektor i Napisy PL]
Szczegóły torrenta
Trackerhttp://exodus.1337x.org/announce
Kategoria:Filmy » DivX - XviD
Dodane18/08/2010 23:08:31
Ostatnie Uaktualnienie18/03/2013 22:23:07
NIKT JESZCZE NIE DODAŁ KOMENTARZA

DODAJ KOMENTARZ
Więcej Emoticon



Wstecz

Żaden z opisanych na stronie plików nie jest przetrzymywany na serwerze. Administrator strony immortaltorrent.pl nie może ponieść konsekwencji prawnych za to co użytkownicy zamieszczają lub piszą na stronie.
Nie możesz używać tego serwisu do rozpowszechniania lub ściągania materiałów do których nie masz odpowiednich praw lub licencji. Użytkownicy zobowiązani są do przestrzeganie tych zasad.
Rejestracja konta jest jednoznaczna z akceptacją zasad.

2018 © immortaltorrent.pl


Najlepsze strony Torrentowe