Torrentów: 142102      Ranga: Gosc               Stwórz konto Odzyskiwanie hasła


Kategorie
Filmy
 ⇒ DivX - XviD
 ⇒ RMVB
 ⇒ DVD-R
 ⇒ TV + Seriale
 ⇒ HDTV-HD
 ⇒ VCD - SVCD
 ⇒ x 264
 ⇒  3D
Gry
 ⇒ Gry PC
 ⇒ Gry Konsole
 ⇒ xbox360
Muzyka
 ⇒ Muzyka
 ⇒ Teledyski/Koncerty
Książki - Komiksy
 ⇒ E-Booki + Audio
 ⇒ Komiksy
Inne
 ⇒ XXX
 ⇒ Dla Dzieci
 ⇒ Sport
 ⇒ Pozostałe - Różne
 ⇒ Manga - Anime
 ⇒ GSM - PDA
Aplikacje
 ⇒ Windows
 ⇒ Linux + Macintosh



Detale torrenta

50 cent - Position Of Power
Kondycja:
Dodane: 25/03/2010
Rozmiar: 41.10 MB
Uploader: Anonimowy
seed(ów): 0
leecher(ów): 1
Pobrane: ---





Ocena: N/A

General :-

Complete name                    : 50 cent- Position Of Power- By Sandy.DAT
Format                           : CDXA/MPEG-PS
File size                        : 40.9 MiB
Duration                         : 4mn 2s
Overall bit rate                 : 1 418 Kbps
Writing library                  : Created with Nero

Video :-

ID                               : 224 (0xE0)
Format                           : MPEG Video
Format version                   : Version 1
Format settings, BVOP            : Yes
Format settings, Matrix          : Default
Duration                         : 4mn 2s
Bit rate mode                    : Variable
Bit rate                         : 1 138 Kbps
Nominal bit rate                 : 1 100 Kbps
Width                            : 352 pixels
Height                           : 240 pixels
Display aspect ratio             : 4:3
Frame rate                       : 29.970 fps
Resolution                       : 8 bits
Scan type                        : Progressive
Bits/(Pixel*Frame)               : 0.449
Stream size                      : 32.8 MiB (80%)
Writing library                  : Ahead Nero

Audio :-

ID                               : 192 (0xC0)
Format                           : MPEG Audio
Format version                   : Version 1
Format profile                   : Layer 2
Duration                         : 4mn 2s
Bit rate mode                    : Constant
Bit rate                         : 224 Kbps
Channel(s)                       : 2 channels
Sampling rate                    : 44.1 KHz
Stream size                      : 6.47 MiB (16%)
Podobne torrenty
[Muzyka] 50.Cent Power (Bootleg) 2010
[XXX] Oklahoma - Get Your Ass In That Position
[XXX] Pole Position 9
[XXX] Pole Position Lex POV 9
[XXX] Julia Ann - Fill The Position
[XXX] Lexi Belle - Name that position
[XXX] Jade Lee HOT ASIAN cowgirl position
[XXX] Yurizan Beltran - Assume The Position [avi]
[XXX] Blonde Brooke gets fucked in athletic position
[XXX] Ryo Akanishi - Cheerleader Extreme Sex Position (UNCENSORED)
Szczegóły torrenta
Trackerhttp://fr33dom.h33t.com:3310/announce
Kategoria:Muzyka » Teledyski/Koncerty
Dodane25/03/2010 06:03:43
Ostatnie Uaktualnienie29/08/2013 18:50:13
NIKT JESZCZE NIE DODAŁ KOMENTARZA

DODAJ KOMENTARZ
Więcej Emoticon



Wstecz

Żaden z opisanych na stronie plików nie jest przetrzymywany na serwerze. Administrator strony immortaltorrent.pl nie może ponieść konsekwencji prawnych za to co użytkownicy zamieszczają lub piszą na stronie.
Nie możesz używać tego serwisu do rozpowszechniania lub ściągania materiałów do których nie masz odpowiednich praw lub licencji. Użytkownicy zobowiązani są do przestrzeganie tych zasad.
Rejestracja konta jest jednoznaczna z akceptacją zasad.

2018 © immortaltorrent.pl


Najlepsze strony Torrentowe