Torrentów: 138529      Ranga: Gość               Stwórz konto Odzyskiwanie hasła


Kategorie
Filmy
 ⇒ DivX - XviD
 ⇒ RMVB
 ⇒ DVD-R
 ⇒ TV + Seriale
 ⇒ HDTV-HD
 ⇒ VCD - SVCD
 ⇒ x 264
 ⇒  3D
Gry
 ⇒ Gry PC
 ⇒ Gry Konsole
 ⇒ xbox360
Muzyka
 ⇒ Muzyka
 ⇒ Teledyski/Koncerty
Książki - Komiksy
 ⇒ E-Booki + Audio
 ⇒ Komiksy
Inne
 ⇒ XXX
 ⇒ Dla Dzieci
 ⇒ Sport
 ⇒ Pozostałe - Różne
 ⇒ Manga - Anime
 ⇒ GSM - PDA
Aplikacje
 ⇒ Windows
 ⇒ Linux + Macintosh



Detale torrenta

Miecz Smoka - Tian jiang xiong shi (2015) [BRRip 1080p x265-HEVC DTS][Napisy PLEng][Eng][Kino Azja]
Kondycja:
Dodane: 12/06/2015
Rozmiar: 3.92 GB
Uploader: Anonimowy

seed(ów): 48
leecher(ów): 43
Pobrane: 409





Ocena: N/A

INFO
reżyseria: Daniel Lee
gatunek: Thriller,Akcja
produkcja: Chiny
premiera: 18-02-2015
muzyka: Henry Lai

opis:

Lost Roman soldiers navigate their way through China.

Huo An (Jackie Chan) jest komandorem Protektoratu Regionów Zachodnich pod panowaniem Dynastii Han, odpowiedzialnym za obronę granic. Wkrótce zostaje niesłusznie oskarżony, w rezultacie czego traci wolność. W tym samym czasie do Chin przedostaje się zaginiony rzymski legion, dowodzony przez Luciusa (John Cusack). Spotkanie obu bohaterów daje początek legendarnej obronie przed armią generała Tiberiusa (Adrien Brody), który pragnie przejąć kontrolę na "jedwabnym szlaku".

obsada:

John Cusack, Jackie Chan, Adrien Brody

dane techniczne:

Dragon Blade (2015)-alE13.mkv
Format : Matroska
Format version : Version 4 / Version 2
File size : 3.92 GiB
Duration : 2h 7mn
Overall bit rate : 4 411 Kbps
Movie name : Dragon Blade (2015)-alE13
Encoded date : UTC 2015-06-10 03:45:17
Writing application : mkvmerge v7.9.0 ('Birds') 64bit
Writing library : libebml v1.3.1 + libmatroska v1.4.2
DURATION : 02:02:18.083000000
NUMBER_OF_FRAMES : 926
NUMBER_OF_BYTES : 23987
_STATISTICS_WRITING_APP : mkvmerge v7.9.0 ('Birds') 64bit
_STATISTICS_WRITING_DATE_UT : 2015-06-10 03:45:17
_STATISTICS_TAGS : BPS DURATION NUMBER_OF_FRAMES NUMBER_OF_BYTES

Video
ID : 1
Format : HEVC
Format/Info : High Efficiency Video Coding
Codec ID : V_MPEGH/ISO/HEVC
Duration : 2h 7mn
Bit rate : 2 814 Kbps
Width : 1 920 pixels
Height : 800 pixels
Display aspect ratio : 2.40:1
Frame rate mode : Constant
Frame rate : 24.000 fps
Bits/(Pixel*Frame) : 0.076
Stream size : 2.50 GiB (64%)
Title : Dragon Blade (2015)-alE13
Language : English
Default : Yes
Forced : No

Audio
ID : 2
Format : DTS
Format/Info : Digital Theater Systems
Mode : 16
Format settings, Endianness : Big
Codec ID : A_DTS
Duration : 2h 7mn
Bit rate mode : Constant
Bit rate : 1 509 Kbps
Channel(s) : 6 channels
Channel positions : Front: L C R, Side: L R, LFE
Sampling rate : 48.0 KHz
Bit depth : 24 bits
Compression mode : Lossy
Stream size : 1.34 GiB (34%)
Title : Dragon Blade (2015)-alE13_DTS_Original
Language : English
Default : No
Forced : No

Text
ID : 3
Format : UTF-8
Codec ID : S_TEXT/UTF8
Codec ID/Info : UTF-8 Plain Text
Title : Dragon Blade (2015)-alE13
Language : English
Default : Yes
Forced : No
Podobne torrenty
[DivX - XviD] Wojna imperiów - Tian Jiang Xiong Shi 2015 [720p] [BRRip.XviD-dabrjarek] [AC3] [Napisy PL] [Kino Azja]
[DivX - XviD] Zakazane Królestwo - The Forbidden Kingdom (2008) [BRRip 1080p x265 HEVC AC3][Lektor i Napisy PLEng][Eng]
[RMVB] Wojownicy Nieba i Ziemi - Tian di ying xiong *2003* [DVDRip] [RMVB] [Napisy PL] [Kino Azja] [alien]
[HDTV-HD] VA-The Best British Rock Concert Of All Time: Live At Knebworth (2015)[BRRip.1080p.x265-HEVC by alE13.DTS-MA/Core] [Eng]
[Teledyski/Koncerty] VA-The Best British Rock Concert Of All Time: Live At Knebworth (2015)[BRRip.1080p.x265-HEVC by alE13.DTS-MA/Core][Eng]
[HDTV-HD] Ucieczka na Atenę-Escape to Athena (1979)[BRRip.1080p.x265-HEVC.AC3][Lektor i Napisy PL/Eng][Eng]
[HDTV-HD] Ucieczka na Atenę-Escape to Athena (1979)[BRRip.1080p.x265-HEVC by alE13 AC3][Lektor i Napisy PL/Eng][Eng]
[HDTV-HD] Piraci z Karaibów-Pirates of the Caribbean Pentology (2003-2017)[BRRip 1080p x265 HEVC by alE13 AC3][Lektor/Dubbing i Napisy PL/Eng][Eng]
[DivX - XviD] Miecz przeznaczenia - Shadowless Sword *2005* [BRRip.XVID.AC3][KOR][Napisy PL,ENG][Kino Azja]
[HDTV-HD] Potop Redivivus (2014)[BRRip.1080p.x265-HEVC.DTS-MA Core/AC3][Subtitles Eng/PL][PL]
Szczegóły torrenta
Trackerhttp://tracker.aletorrenty.pl:2710/announce
Multitracker http://tracker.aletorrenty.pl:2710/announce
udp://inferno.demonoid.ooo:3392/announce
http://exodus.desync.com:6969/announce
http://bigfoot1942.sektori.org:6969/announce
http://tracker.filetracker.pl:8089/announce
http://tracker.torrenty.org:6969/announce
http://tracker.filetracker.pl:8089/announce
udp://tracker.aletorrenty.pl:2710/announce

Kategoria:Filmy » DivX - XviD
Dodane12/06/2015 15:06:05
Ostatnie Uaktualnienie12/06/2015 15:19:06
Pokaż/Ukryj pliki:
7 plików
NIKT JESZCZE NIE DODAŁ KOMENTARZA

DODAJ KOMENTARZ
Więcej Emoticon



Wstecz

Żaden z opisanych na stronie plików nie jest przetrzymywany na serwerze. Administrator strony immortaltorrent.pl nie może ponieść konsekwencji prawnych za to co użytkownicy zamieszczają lub piszą na stronie.
Nie możesz używać tego serwisu do rozpowszechniania lub ściągania materiałów do których nie masz odpowiednich praw lub licencji. Użytkownicy zobowiązani są do przestrzeganie tych zasad.
Rejestracja konta jest jednoznaczna z akceptacją zasad.

2017 © immortaltorrent.pl


Najlepsze strony Torrentowe