Torrentów: 135635      Ranga: Gość               Stwórz konto Odzyskiwanie hasła


Kategorie
Filmy
 ⇒ DivX - XviD
 ⇒ RMVB
 ⇒ DVD-R
 ⇒ TV + Seriale
 ⇒ HDTV-HD
 ⇒ VCD - SVCD
 ⇒ x 264
 ⇒  3D
Gry
 ⇒ Gry PC
 ⇒ Gry Konsole
 ⇒ xbox360
Muzyka
 ⇒ Muzyka
 ⇒ Teledyski/Koncerty
Książki - Komiksy
 ⇒ E-Booki + Audio
 ⇒ Komiksy
Inne
 ⇒ XXX
 ⇒ Dla Dzieci
 ⇒ Sport
 ⇒ Pozostałe - Różne
 ⇒ Manga - Anime
 ⇒ GSM - PDA
Aplikacje
 ⇒ Windows
 ⇒ Linux + Macintosh



Detale torrenta

Łowca i Królowa Lodu-The Huntsman Winters War *2016* [1080p] [HC.WEBRip] [x264.AAC2.0-STUTTERSHIT] [ENG]
Kondycja:
Dodane: 13/05/2016
Rozmiar: 3.74 GB
Uploader: zibi6248

seed(ów): 4466
leecher(ów): 5907
Pobrane: 5222





Ocena: N/A

...( Info )...

Produkcja: USA
Gatunek: Fantasy, Przygodowy
Premiera: 8 kwietnia 2016 (Polska), 4 kwietnia 2016 (świat)
Reżyseria: Cedric Nicolas-Troyan
Scenariusz: Evan Spiliotopoulos, Craig Mazin
https://www.youtube.com/watch?v=oy8JnbPQDuk

...( Opis )...

Na długo nim królową Ravennę (Charlize Theron) przeraziła rozkwitająca uroda Śnieżki i postępujące widmo utarty władzy, Ravenna w cichości przyglądała się jak jej siostra – Freya (Emily Blunt), po bolesnej zdradzie, która złamała jej serce, opuszcza Królestwo. Potrafiąca zamrażać swoich wrogów Królowa Lodu Freya spędza lata w samotności, tworząc legion śmiercionośnych łowców, w którego zastępach znajdują się Łowca Eryk (Chris Hemsworth) i wojowniczka Sara (Jessica Chastain),  którzy kierują się jedną zasadą – Nigdy nie kochać. Kiedy Freya dowiaduje się o losach swej siostry, wzywa swoich zaufanych łowców, by sprowadzili Magiczne Zwierciadło…

...( Obsada )...

★ Chris Hemsworth .... Łowca / Eric
★ Charlize Theron .... Ravenna
★ Jessica Chastain .... Sara
★ Emily Blunt .... Królowa Freya
★ Nick Frost .... Nion
★ Rob Brydon .... Gryff
★ Sheridan Smith .... Pani Bromwyn
★ Alexandra Roach .... Doreena

...( Dane Techniczne )...


Video
ID                                       : 1
Format                                   : AVC
Format/Info                              : Advanced Video Codec
Format profile                           : High@L4.1
Format settings, CABAC                   : Yes
Format settings, ReFrames                : 4 frames
Codec ID                                 : avc1
Codec ID/Info                            : Advanced Video Coding
Duration                                 : 1h 52mn
Bit rate                                 : 4 500 Kbps
Width                                    : 1 920 pixels
Height                                   : 800 pixels
Display aspect ratio                     : 2.40:1
Frame rate mode                          : Constant
Frame rate                               : 29.970 (29970/1000) fps
Color space                              : YUV
Chroma subsampling                       : 4:2:0
Bit depth                                : 8 bits
Scan type                                : Progressive
Bits/(Pixel*Frame)                       : 0.098
Stream size                              : 3.55 GiB (95%)

Audio
ID                                       : 2
Format                                   : AAC
Format/Info                              : Advanced Audio Codec
Format profile                           : LC
Codec ID                                 : 40
Duration                                 : 1h 52mn
Duration_LastFrame                       : 43ms
Bit rate mode                            : Constant
Bit rate                                 : 224 Kbps
Channel(s)                               : 2 channels
Channel positions                        : Front: L R
Sampling rate                            : 48.0 KHz
Frame rate                               : 46.875 fps (1024 spf)
Compression mode                         : Lossy
Stream size                              : 181 MiB (5%)
Title                                    : The.Huntsman.Winters.War.2016.1080p.HC.WEBRip.x264.AAC2.0-STUTTERSHIT
Language                                 : English
Default                                  : Yes
Alternate group                          : 1



[video=https://www.youtube.com/watch?v=oy8JnbPQDuk]
Podobne torrenty
[DivX - XviD] Łowca i Królowa Lodu - The Huntsman Winter\'s War *2016* [HC] [HDRip] [XviD-JN] [Lektor PL IVO]
[DivX - XviD] Łowca i Królowa Lodu - The Huntsman: Winter\'s War *2016* [720p] [WEB-DL] [XViD-K12] [Napisy PL] [dabrjarek]
[DivX - XviD] Łowca i Królowa Lodu / The Huntsman: Winter\'s War (2016) [EXTENDED.BDRiP.XViD-K12] [Dubbing PL]
[DivX - XviD] Łowca i Królowa Lodu / The Huntsman Winter\'s War (2016) [THEATRICAL.BDRip.XViD-MORS] [NAPISY PL]
[x 264] Londyn w ogniu - London Has Fallen *2016* [1080p] [WEB-DL] [AAC2.0.H264-FGT] [ENG]
[x 264] Siedmiu wspaniałych-The Magnificent Seven (2016)[WEBRip 1080p x264 by alE13 AC3][Napisy PL/Eng][Eng]
[HDTV-HD] Narodziny Strachu-Rising Fear (2016)[WEBRip 1080p x264 by alE13 AC3][Napisy PL][Eng]
[Teledyski/Koncerty] Kolekcja Klipów-Collection of funny clips (2016)[Part 2] [WEBRip 1080p x264 by alE13 AAC][Eng]
[HDTV-HD] Unia Bogów-League Of Gods (2016)[WebRip 1080p x264 by alE13 AC3][Napisy PL/Eng][Chinese]
[DivX - XviD] Królewna Śnieżka i Łowca - Snow White and the Huntsman *2012* [BDRip.XviD] [Napisy PL]
Szczegóły torrenta
Trackerhttp://tracker.trackerfix.com:80/announce
Multitracker http://tracker.trackerfix.com:80/announce
udp://9.rarbg.me:2710/announce
udp://9.rarbg.to:2710/announce

Kategoria:Filmy » x 264
Dodane13/05/2016 13:05:40
Ostatnie Uaktualnienie13/05/2016 13:02:07
Pokaż/Ukryj pliki:
3 plików
NIKT JESZCZE NIE DODAŁ KOMENTARZA

DODAJ KOMENTARZ
Więcej Emoticon



Wstecz

Żaden z opisanych na stronie plików nie jest przetrzymywany na serwerze. Administrator strony immortaltorrent.pl nie może ponieść konsekwencji prawnych za to co użytkownicy zamieszczają lub piszą na stronie.
Nie możesz używać tego serwisu do rozpowszechniania lub ściągania materiałów do których nie masz odpowiednich praw lub licencji. Użytkownicy zobowiązani są do przestrzeganie tych zasad.
Rejestracja konta jest jednoznaczna z akceptacją zasad.

2017 © immortaltorrent.pl


Najlepsze strony Torrentowe