Torrentów: 134075      Ranga: Gość               Stwórz konto Odzyskiwanie hasła


Kategorie
Filmy
 ⇒ DivX - XviD
 ⇒ RMVB
 ⇒ DVD-R
 ⇒ TV + Seriale
 ⇒ HDTV-HD
 ⇒ VCD - SVCD
 ⇒ x 264
 ⇒  3D
Gry
 ⇒ Gry PC
 ⇒ Gry Konsole
 ⇒ xbox360
Muzyka
 ⇒ Muzyka
 ⇒ Teledyski/Koncerty
Książki - Komiksy
 ⇒ E-Booki + Audio
 ⇒ Komiksy
Inne
 ⇒ XXX
 ⇒ Dla Dzieci
 ⇒ Sport
 ⇒ Pozostałe - Różne
 ⇒ Manga - Anime
 ⇒ GSM - PDA
Aplikacje
 ⇒ Windows
 ⇒ Linux + Macintosh



Detale torrenta

The Walk. Sięgając chmur - The Walk 2015 FIRST CAM x264 Mic-CPG [ENG]
Kondycja:
Dodane: 05/11/2015
Rozmiar: 0.98 GB
Uploader: Anonimowy

seed(ów): 98
leecher(ów): 29
Pobrane: 3106





Ocena: N/A

Tytuł............................................
: The Walk / The Walk. Sięgając chmur

Ocena.............................................
: IMDB - 7.8/10 (9660), Filmweb - 7.2/10 (1204)

Produkcja.........................................
: USA

Gatunek...........................................
: Biograficzny, Dramat

Czas trwania......................................
: 123 min.

Premiera..........................................
: 09.10.2015 - Polska, 25.09.2015 - Świat

Reżyseria........................................
: Robert Zemeckis

Scenariusz........................................
: Christopher Browne, Robert Zemeckis

Aktorzy...........................................
: Joseph Gordon-Levitt, Ben Kingsley, Charlotte Le Bon, James Badge Dale

OPIS: Historia francuskiego artysty Philippe'a Petita, który w 1974 roku przeszedł po linie między wieżami World Trade Center.


Format : Matroska

Format version : Version 4 / Version 2

File size : 982 MiB

Duration : 1h 54mn

Overall bit rate mode : Variable

Overall bit rate : 1 196 Kbps

Encoded date : UTC 2015-10-14 19:54:08

Writing application : mkvmerge v7.4.0 ('Circles') 64bit built on Dec 12 2014 12:19:56

Writing library : libebml v1.3.0 + libmatroska v1.4.1

_STATISTICS_WRITING_APP : mkvmerge v7.4.0 ('Circles') 64bit built on Dec 12 2014 12:19:56

_STATISTICS_WRITING_DATE_UTC : 2015-10-14 19:54:08

_STATISTICS_TAGS : BPS DURATION NUMBER_OF_FRAMES NUMBER_OF_BYTES

DURATION : 01:51:44.100000000

NUMBER_OF_FRAMES : 2

NUMBER_OF_BYTES : 34



Video

ID : 1

Format : AVC

Format/Info : Advanced Video Codec

Format profile : High@L4.2

Format settings, CABAC : Yes

Format settings, ReFrames : 3 frames

Codec ID : V_MPEG4/ISO/AVC

Duration : 1h 54mn

Bit rate mode : Variable

Bit rate : 1 000 Kbps

Maximum bit rate : 62.5 Mbps

Width : 720 pixels

Height : 336 pixels

Display aspect ratio : 2.2:1

Frame rate : 29.970 fps

Color space : YUV

Chroma subsampling : 4:2:0

Bit depth : 8 bits

Scan type : Progressive

Bits/(Pixel*Frame) : 0.138

Stream size : 805 MiB (82%)

Writing library : x264 core 146 r2538 121396c

Encoding settings : cabac=1 / ref=4 / deblock=1:-1:-1 / analyse=0x3:0x133 / me=umh / subme=9 / psy=1 / psy_rd=1.00:0.15 / mixed_ref=1 / me_range=18 / chroma_me=1 / trellis=2 / 8x8dct=1 / cqm=0 / deadzone=21,11 / fast_pskip=0 / chroma_qp_offset=-3 / threads=16 / lookahead_threads=1 / sliced_threads=0 / slices=4 / nr=0 / decimate=1 / interlaced=0 / bluray_compat=0 / constrained_intra=0 / bframes=3 / b_pyramid=1 / b_adapt=2 / b_bias=0 / direct=3 / weightb=1 / open_gop=0 / weightp=0 / keyint=300 / keyint_min=29 / scenecut=40 / intra_refresh=0 / rc_lookahead=40 / rc=abr / mbtree=1 / bitrate=1000 / ratetol=1.0 / qcomp=0.60 / qpmin=10 / qpmax=51 / qpstep=4 / vbv_maxrate=62500 / vbv_bufsize=78125 / nal_hrd=vbr / filler=0 / ip_ratio=1.40 / aq=1:1.00

Default : Yes

Forced : No

Color primaries : BT.709-5, BT.1361, IEC 61966-2-4, SMPTE RP177

Transfer characteristics : BT.709-5, BT.1361

Matrix coefficients : BT.709-5, BT.1361, IEC 61966-2-4 709, SMPTE RP177



Audio

ID : 2

Format : AC-3

Format/Info : Audio Coding 3

Mode extension : CM (complete main)

Codec ID : A_AC3

Duration : 1h 54mn

Bit rate mode : Constant

Bit rate : 192 Kbps

Channel(s) : 2 channels

Channel positions : Front: L R

Sampling rate : 44.1 KHz

Bit depth : 16 bits

Compression mode : Lossy

Stream size : 158 MiB (16%)

Default : Yes

Forced : No



Text

ID : 3

Format : UTF-8

Codec ID : S_TEXT/UTF8

Codec ID/Info : UTF-8 Plain Text

Default : Yes

Forced : No
Podobne torrenty
[DivX - XviD] The Walk. Sięgając chmur - The Walk *2015* [BDRip] [XviD-KiT] [Lektor PL]
[DivX - XviD] A Walk in the Woods 2015 [BRRip] [XviD-MX] [Napisy PL]
[HDTV-HD] Walk Hard The Dewey Cox Story 720p BluRay x264
[x 264] Krocząc wśród cieni /A Walk Among the Tombstones *2014* [480p] [BRRip] [x264.AC3-Shadow] [MKV] [Lektor PL]
[HDTV-HD] Krocząc wśród cieni /A Walk Among the Tombstones *2014* [720p],[BluRay] [AC3.x264-Shadow] [LEKTOR PL]
[Muzyka] DMX - Walk with me now
[Muzyka] BlessTheFall - His Last Walk
[Muzyka] Run-DMC - Walk This Way (The Best Of Run-DMC) [2010]
[Gry Konsole] Walk It Out (2010) [Eng]
[Teledyski/Koncerty] Basshunter - Walk On Water
Szczegóły torrenta
Trackerudp://glotorrents.pw:6969/announce
Multitracker udp://tracker.istole.it:80
udp://9.rarbg.com:2710/announce
http://exodus.desync.com:6969/announce
udp://glotorrents.pw:6969/announce
udp://tracker4.piratux.com:6969/announce
udp://coppersurfer.tk:6969/announce
udp://open.demonii.com:1337/announce
udp://tracker.publicbt.com:80/announce
udp://tracker.openbittorrent.com:80/announce
udp://p4p.arenabg.ch:1337/announce
udp://tracker.opentrackr.org:1337/announce
udp://tracker.aletorrenty.pl:2710/announce
udp://tracker.blackunicorn.xyz:6969/announce

Kategoria:Filmy » x 264
Dodane05/11/2015 12:11:42
Ostatnie Uaktualnienie15/11/2015 17:06:11
Pokaż/Ukryj pliki:
5 plików
NIKT JESZCZE NIE DODAŁ KOMENTARZA

DODAJ KOMENTARZ
Więcej Emoticon



Wstecz

Żaden z opisanych na stronie plików nie jest przetrzymywany na serwerze. Administrator strony immortaltorrent.pl nie może ponieść konsekwencji prawnych za to co użytkownicy zamieszczają lub piszą na stronie.
Nie możesz używać tego serwisu do rozpowszechniania lub ściągania materiałów do których nie masz odpowiednich praw lub licencji. Użytkownicy zobowiązani są do przestrzeganie tych zasad.
Rejestracja konta jest jednoznaczna z akceptacją zasad.

2017 © immortaltorrent.pl


Najlepsze strony Torrentowe