Torrentów: 134067      Ranga: Gość               Stwórz konto Odzyskiwanie hasła


Kategorie
Filmy
 ⇒ DivX - XviD
 ⇒ RMVB
 ⇒ DVD-R
 ⇒ TV + Seriale
 ⇒ HDTV-HD
 ⇒ VCD - SVCD
 ⇒ x 264
 ⇒  3D
Gry
 ⇒ Gry PC
 ⇒ Gry Konsole
 ⇒ xbox360
Muzyka
 ⇒ Muzyka
 ⇒ Teledyski/Koncerty
Książki - Komiksy
 ⇒ E-Booki + Audio
 ⇒ Komiksy
Inne
 ⇒ XXX
 ⇒ Dla Dzieci
 ⇒ Sport
 ⇒ Pozostałe - Różne
 ⇒ Manga - Anime
 ⇒ GSM - PDA
Aplikacje
 ⇒ Windows
 ⇒ Linux + Macintosh



Detale torrenta

Miasto Grzechu-City of Sin (2016)[BRRip 1080p x264 by alE13 AC3/DTS][Napisy PL][Eng]
Kondycja:
Dodane: 21/12/2016
Rozmiar: 7.76 GB
Uploader: alE13

seed(ów): 0
leecher(ów): 0
Pobrane: 0





Ocena: N/A



http://www.imdb.com/title/tt6205542/

Plik zawiera sample.

produkcja:   USA
premiera:    03-12-2016
reżyseria:   Sebastian Gutierrez
scenariusz:  Sebastian Gutierrez
gatunek:     kryminał, romans
czas:        1h 36mn

opis:

A hardened detective lays low in a darkened downtown Los Angeles hotel room, biding his time
as he patiently awaits a gang of vengeful hitmen that are on his tail. Throughout the course
of this one fateful night the detective becomes entangled in a web of girls, guns, and money,
as he enlists the help of the many intriguing hotel guests that he encounters in an effort to
evade the grave fate that lies in store.

Pewnego wieczoru detektyw z policji, poznaje piosenkarkę z hotelu, zaczyna wyznawać jej swoje
grzeszki, noc długa, a zwierzeń tak wiele. Tej nocy detektyw wplątuje się w zbieg dziwnych
wydarzeń, związanych z morderstwami, sutenerstwem, dużą forsą i pięknymi kobietami.

http://i.imgur.com/XxZK7su.jpg
http://i.imgur.com/qcbcD6m.jpg
http://i.imgur.com/bRtqgmJ.jpg
http://i.imgur.com/KUZSCcl.jpg

obsada:

Danny DeVito, Robert Forster, Rufus Sewell, Malin Akerman,

dane techniczne:

City Of Sin (2017)-alE13.mkv
Format                      : Matroska
Format version              : Version 4 / Version 2
File size                   : 7.70 GiB
Duration                    : 1 h 36 min
Overall bit rate            : 11.4 Mb/s
Movie name                  : City of Sin (2017)-alE13
Encoded date                : UTC 2016-12-20 21:35:36
Writing application         : mkvmerge v8.1.0 ('Psychedelic Postcard') 64bit
Writing library             : libebml v1.3.1 + libmatroska v1.4.2
Cover                       : Yes
Attachments                 : cover.jpg

Video
ID                          : 1
Format                      : AVC
Format/Info                 : Advanced Video Codec
Format profile              : High@L4.1
Format settings, CABAC      : Yes
Format settings, ReFrames   : 2 frames
Codec ID                    : V_MPEG4/ISO/AVC
Duration                    : 1 h 36 min
Bit rate                    : 10.9 Mb/s
Width                       : 1 920 pixels
Height                      : 800 pixels
Display aspect ratio        : 2.40:1
Frame rate mode             : Constant
Frame rate                  : 23.976 (24000/1001) FPS
Color space                 : YUV
Chroma subsampling          : 4:2:0
Bit depth                   : 8 bits
Scan type                   : Progressive
Bits/(Pixel*Frame)          : 0.296
Stream size                 : 7.35 GiB (95%)
Title                       : City of Sin (2017)-alE13
Writing library             : x264 core 142
Default                     : Yes
Forced                      : No
Color range                 : Limited
Color primaries             : BT.709
Transfer characteristics    : BT.709
Matrix coefficients         : BT.709

Audio
ID                          : 2
Format                      : AC-3
Format/Info                 : Audio Coding 3
Mode extension              : CM (complete main)
Format settings, Endianness : Big
Codec ID                    : A_AC3
Duration                    : 1 h 36 min
Bit rate mode               : Constant
Bit rate                    : 512 kb/s
Channel(s)                  : 6 channels
Channel positions           : Front: L C R, Side: L R, LFE
Sampling rate               : 48.0 kHz
Frame rate                  : 31.250 FPS (1536 spf)
Bit depth                   : 16 bits
Compression mode            : Lossy
Stream size                 : 354 MiB (4%)
Title                       : City of Sin (2017)-alE13_AC3
Language                    : English
Default                     : No
Forced                      : No

Text
ID                          : 3
Format                      : UTF-8
Codec ID                    : S_TEXT/UTF8
Codec ID/Info               : UTF-8 Plain Text
Duration                    : 1 h 33 min
Bit rate                    : 64 b/s
Count of elements           : 1394
Stream size                 : 44.3 KiB (0%)
Title                       : City of Sin (2017)-alE13
Language                    : Polish
Default                     : Yes
Forced                      : No

Menu
00:00:00.000                : en:1
00:07:00.295                : en:2
00:10:18.034                : en:3
00:18:30.484                : en:4
00:24:18.957                : en:5
00:29:33.396                : en:6
00:33:09.945                : en:7
00:38:12.497                : en:8
00:42:17.783                : en:9
00:48:14.014                : en:10
00:56:38.393                : en:11
01:02:06.345                : en:12
01:07:54.693                : en:13
01:13:37.786                : en:14
01:20:31.198                : en:15
01:29:16.974                : en:16
Podobne torrenty
[x 264] Sin City - Miasto Grzechu *2005 * [1080p.BluRay.DTS.x264]
[x 264] Miasto grzechu - Sin City *2005* [BRRip.x264]
[HDTV-HD] Ben-Hur(2016)[BRRip 1080p x264 by alE13 AC3/DTS]Napisy PL/England][Eng]
[HDTV-HD] Siedmiu wspaniałych-The Magnificent Seven (2016)[BRRip 1080p x264 by alE13 AC3/DTS][Napisy PL/Eng][Eng]
[HDTV-HD] Rebeliant-Free State of Jones (2016)[BRRip 1080p x264 by alE13 AC3/DTS][Lektor i Napisy Eng/Rus][Eng]
[DivX - XviD] Sin City - Miasto Grzechu - Sin City *2005*[DVDRip.XviD] [Napisy PL]
[HDTV-HD] Goście, goście III: Rewolucja-Les Visiteurs-La Revolution (2016)[BRRip 1080p x264 by alE13 AC3/DTS][Napisy PL/Eng/Fre][Fre]
[x 264] Inferno (2016)[WEBRRip 1080p x264 by alE13 AC3][Napisy PL][Eng]
[HDTV-HD] Inferno (2016)[WEBRRip 1080p x264 by alE13 AC3][Napisy PL][Eng]
[ 3D] Załoga-Ekipazh 3D (2016)[BDRip 1080p x264 by alE13 AC3][Napisy PL/Eng][Rus]
Szczegóły torrenta
Trackerhttp://auratorrent.pl:8089/announce
Multitracker http://auratorrent.pl:8089/announce
http://pow7.com:80/announce
http://pow7.com/announce
http://tracker.tfile.me/announce
http://retracker.omsk.ru:2710/announce
http://mgtracker.org:2710/announce
udp://tracker.leechers-paradise.org:6969/announce
http://mgtracker.org:2710/announce
http://pow7.com:80/announce
http://pow7.com/announce
http://tracker.torrentyorg.pl/announce
udp://inferno.demonoid.ooo:3392/announce
udp://inferno.demonoid.pw:3393/announce
udp://tracker.coppersurfer.tk:6969/announce

Kategoria:Filmy » HDTV-HD
Dodane21/12/2016 09:12:49
Ostatnie Uaktualnienie19/01/2017 10:45:27
Pokaż/Ukryj pliki:
10 plików
NIKT JESZCZE NIE DODAŁ KOMENTARZA

DODAJ KOMENTARZ
Więcej Emoticon



Wstecz

Żaden z opisanych na stronie plików nie jest przetrzymywany na serwerze. Administrator strony immortaltorrent.pl nie może ponieść konsekwencji prawnych za to co użytkownicy zamieszczają lub piszą na stronie.
Nie możesz używać tego serwisu do rozpowszechniania lub ściągania materiałów do których nie masz odpowiednich praw lub licencji. Użytkownicy zobowiązani są do przestrzeganie tych zasad.
Rejestracja konta jest jednoznaczna z akceptacją zasad.

2017 © immortaltorrent.pl


Najlepsze strony Torrentowe