Torrentów: 137128      Ranga: Go¶ć               Stwórz konto Odzyskiwanie hasła


Kategorie
Filmy
 ⇒ DivX - XviD
 ⇒ RMVB
 ⇒ DVD-R
 ⇒ TV + Seriale
 ⇒ HDTV-HD
 ⇒ VCD - SVCD
 ⇒ x 264
 ⇒  3D
Gry
 ⇒ Gry PC
 ⇒ Gry Konsole
 ⇒ xbox360
Muzyka
 ⇒ Muzyka
 ⇒ Teledyski/Koncerty
Ksi±żki - Komiksy
 ⇒ E-Booki + Audio
 ⇒ Komiksy
Inne
 ⇒ XXX
 ⇒ Dla Dzieci
 ⇒ Sport
 ⇒ Pozostałe - Różne
 ⇒ Manga - Anime
 ⇒ GSM - PDA
Aplikacje
 ⇒ Windows
 ⇒ Linux + Macintosh



Detale torrenta

Shania Twain-Videography (2007)[DVDRip Remux by alE13 AC3/DTS][Eng]
Kondycja:
Dodane: 10/10/2017
Rozmiar: 6.23 GB
Uploader: alE13

seed(ów): 1
leecher(ów): 0
Pobrane: 0





Ocena: N/A



Wstawka na pro¶bę Kolegi.

Rok: 2007
Kraj: USA
Gatunek: Pop/country
czas: 130 min.

opis:

Collection of the best music videos Shania Twain from DVDs with the best quality sound.

Zbiór najlepszych teledysków Shanai Twain z płyt DVD w najlepszej jako¶ci dĽwiękowej.






tracklist:

What Made You Say That
Dance with the One That Brought You
You Lay a Whole Lot of Love on Me
Whose Beds Have Your Boots Been Under?
Any Man of Mine
The Woman in Me (Needs the Man in You)
(If You're Not in It for Love) I'm Outta Here!
You Win My Love
No One Needs to Know
Home Ain't Where His Heart Is (Anymore)
God Bless the Child
Love Gets Me Every Time
Don't Be Stupid (You Know I Love You)
You're Still the One
Honey I'm Home
From This Moment On
That Don't Impress Me Much
Man! I Feel Like a Woman!
You've Got a Way
Come On Over
Rock This Country
I'm Gonna Getcha Good
Up!
Ka-Ching!
Forever And For Always
When You Kiss Me
Party For Two - feat Billy Currington (Country Music Version)
Party For Two - feat Mark McGrath
Don'T
I Aint No Quitter

dane techniczne:

opcionalnie

Shania Twain - Love Gets Me Every Time.VOB
Format : MPEG-PS
File size : 182 MiB
Duration : 46mn 20s
Overall bit rate : 548 Kbps
Writing library : encoded by TMPGEnc (ver. 2.521.58.169)

Video
ID : 224 (0xE0)
Format : MPEG Video
Format version : Version 2
Format profile : Main@Main
Format settings, BVOP : Yes
Format settings, Matrix : Default
Format settings, GOP : M=3, N=13
Duration : 46mn 20s
Width : 720 pixels
Height : 480 pixels
Display aspect ratio : 4:3
Frame rate : 29.970 fps
Standard : NTSC
Color space : YUV
Chroma subsampling : 4:2:0
Bit depth : 8 bits
Compression mode : Lossy
Time code of first frame : 00:00:00:00
Time code source : Group of pictures header
GOP, Open/Closed : Open
GOP, Open/Closed of first f : Closed
Writing library : TMPGEnc 2.521.58.169
Color primaries : BT.601 NTSC
Transfer characteristics : BT.601
Matrix coefficients : BT.601

Audio #1
ID : 189 (0xBD)-128 (0x80)
Format : AC-3
Format/Info : Audio Coding 3
Mode extension : CM (complete main)
Format settings, Endianness : Big
Muxing mode : DVD-Video
Duration : 3mn 34s
Bit rate mode : Constant
Bit rate : 192 Kbps
Channel(s) : 2 channels
Channel positions : Front: L R
Sampling rate : 48.0 KHz
Compression mode : Lossy
Delay relative to video : 42mn 45s
Stream size : 4.92 MiB (3%)

Audio #2
ID : 189 (0xBD)-137 (0x89)
Format : DTS
Format/Info : Digital Theater Systems
Mode : 16
Format settings, Endianness : Big
Muxing mode : DVD-Video
Duration : 3mn 34s
Bit rate mode : Constant
Bit rate : 755 Kbps
Channel(s) : 5 channels
Channel positions : Front: L C R, Side: L R
Sampling rate : 48.0 KHz
Bit depth : 24 bits
Compression mode : Lossy
Delay relative to video : 42mn 45s
Stream size : 19.3 MiB (11%)
Podobne torrenty
[x 264] Shania Twain-Live (1999)[DVDRemux x264 by alE13 AC3/PCM][Eng]
[Teledyski/Koncerty] Shania Twain-Still-The One-Live From Vegas(2015)[BRRip.1080p.x264 by alE13 AC3/PCM/DTS-HD/MA][Eng]
[HDTV-HD] Shania Twain-Still-The One-Live From Vegas(2015)[BRRip.1080p.x264 by alE13 AC3/PCM/DTS-HD/MA][Eng]
[Teledyski/Koncerty] Shania Twain Up
[Teledyski/Koncerty] Shania Twain - Ka Ching!
[Teledyski/Koncerty] Shania Twain - I Ain 't No Quitter
[Teledyski/Koncerty] Shania Twain - Ka Ching! [DVD.Rip]
[Teledyski/Koncerty] Shania Twain - Dance With The One That Brought You
[Teledyski/Koncerty] Shania Twain - It Only Hurts When I\'m Breathing
[Teledyski/Koncerty] Shania Twain - I'm Outta Here [TVRip.mpg]
Szczegóły torrenta
Trackerhttp://tracker.devil-torrents.pl/announce
Multitracker http://tracker.devil-torrents.pl/announce
http://tracker.torrentyorg.pl/announce
udp://tracker.opentrackr.org:1337/announce
udp://tracker.leechers-paradise.org:6969/announce
udp://tracker.ilibr.org:80/announce
udp://tracker.coppersurfer.tk:6969/announce
udp://p4p.arenabg.ch:1337/announce
udp://inferno.demonoid.pw:3391/announce

Kategoria:Muzyka » Teledyski/Koncerty
Dodane10/10/2017 05:10:23
Ostatnie Uaktualnienie10/10/2017 05:07:23
Pokaż/Ukryj pliki:
46 plików
NIKT JESZCZE NIE DODAŁ KOMENTARZA

DODAJ KOMENTARZ
Więcej Emoticon



Wstecz

Żaden z opisanych na stronie plików nie jest przetrzymywany na serwerze. Administrator strony immortaltorrent.pl nie może ponieść konsekwencji prawnych za to co użytkownicy zamieszczają lub piszą na stronie.
Nie możesz używać tego serwisu do rozpowszechniania lub ściągania materiałów do których nie masz odpowiednich praw lub licencji. Użytkownicy zobowiązani są do przestrzeganie tych zasad.
Rejestracja konta jest jednoznaczna z akceptacją zasad.

2017 © immortaltorrent.pl


Najlepsze strony Torrentowe