Torrentów: 146391      Ranga: Gosc               Stwórz konto Odzyskiwanie hasła


Kategorie
Filmy
 ⇒ DivX - XviD
 ⇒ RMVB
 ⇒ DVD-R
 ⇒ TV + Seriale
 ⇒ HDTV-HD
 ⇒ VCD - SVCD
 ⇒ x 264
 ⇒  3D
Gry
 ⇒ Gry PC
 ⇒ Gry Konsole
 ⇒ xbox360
Muzyka
 ⇒ Muzyka
 ⇒ Teledyski/Koncerty
Książki - Komiksy
 ⇒ E-Booki + Audio
 ⇒ Komiksy
Inne
 ⇒ XXX
 ⇒ Dla Dzieci
 ⇒ Sport
 ⇒ Pozostałe - Różne
 ⇒ Manga - Anime
 ⇒ GSM - PDA
Aplikacje
 ⇒ Windows
 ⇒ Linux + Macintosh



Detale torrenta

Jean Claude Van Damme Collection - Part 4/31 - Cyborg - The Cyborg *1989* [DVDRip.XviD] [Napisy PL]
Kondycja:
Dodane: 18/01/2009
Rozmiar: 701.04 MB
Uploader: Anonimowy
seed(ów): 0
leecher(ów): 0
Pobrane: 474





Ocena: N/A

Polski tytu³: Cyborg
Oryginalny: The Cyborg
Produkcja: USA
Gatunek: Akcja, Sci-Fi
Data premiery: 1989-04-07 (¦wiat)
Re¿yseria: Albert Pyun
Czas trwania: 86 min

Filmweb: 6,86/10 ( 476 g³osów )
http://www.filmweb.pl/f4765/Cyborg,1989

Gibson Rickenbacker (Jean-Claude Van Damme) zarabia na ¿ycie wyprowadzaniem ze zgliszczy miasta pozosta³ych przy ¿yciu ludzi po Apokalipsie. Kiedy¶ mia³ dom, rodzinê, dzieci. Wszyscy zginêli z r±k zwyrodnialców, sprawuj±cych teraz w³adzê nad zdegenerowan± Ameryk±. Wokó³ szaleje zaraza, ostateczna zag³ada jest kwesti± dni. W desperackim odruchu Gibson podejmuje siê trudnego zadania. Ma eskortowaæ do Atlanty piêkn± nieznajom±, ¶cigan± przez hordy przeciwników. Dziewczyna jest cyborgiem, który posiada zbawcze dla ludzko¶ci dane.

Obsada:

Jean Claude Van Damme: Gibson Rickenbacker
Deborah Richter: Nady Simmons

Info:

Video
Format : MPEG-4 Visual
Format profile : Streaming Video@L1
Format settings, BVOP : Yes
Format settings, QPel : No
Format settings, GMC : No warppoints
Format settings, Matrix : Custom
Codec ID : XVID
Codec ID/Hint : XviD
Duration : 1h 22mn
Bit rate : 1 055 Kbps
Width : 608 pixels
Height : 336 pixels
Display aspect ratio : 16/9
Frame rate : 25.000 fps
Resolution : 24 bits
Colorimetry : 4:2:0
Scan type : Progressive
Bits/(Pixel*Frame) : 0.207
Stream size : 623 MiB (89%)
Writing library : XviD 1.2.0SMP (UTC 2006-01-08)

Audio
Format : MPEG Audio
Format version : Version 1
Format profile : Layer 3
Codec ID : 55
Codec ID/Hint : MP3
Duration : 1h 22mn
Bit rate mode : Variable
Bit rate : 120 Kbps
Minimum bit rate : 128 Kbps
Channel(s) : 2 channels
Sampling rate : 48.0 KHz
Resolution : 16 bits
Stream size : 70.6 MiB (10%)
Alignment : Aligned on interleaves
Interleave, duration : 24 ms (0.60 video frame)
Interleave, preload duration : 578 ms
Writing library : LAME3.97b
Encoding settings : ABR

Napisy PL - s±
Napisy Eng - brak
Jêzyk - ENG Nie Dubbing
Podobne torrenty
[DivX - XviD] Jean Claude Van Damme Collection - Part 3/31 - Krwawy sport - Bloodsport *1988* [DVDRip.XviD] [Napisy PL]
[DivX - XviD] Jean-Claude Van Damme Filmography DVDRip Part One
[DivX - XviD] Cyborg 2: Szklany cieñ - Cyborg 2 *1993* [DVDRip] [XviD-Shadow] [Lektor PL]
[x 264] Cyborg 2: Szklany cieñ - Cyborg 2 *1993* [DVDRip] [x264-Shadow] [MKV] [Lektor PL]
[x 264] Cyborg *1989* [DVDRip.x264] [Napisy PL]
[DivX - XviD] Cyborg [1989] [DVDRip.XviD]
[DivX - XviD] Cyborg *1989* [DVDRip.XviD]
[DivX - XviD] Cyborg *1989* [DVDRip.XviD][AC3] [Lektor PL]
[HDTV-HD] Cyborg (1989)[BRRip 1080p x264 by alE13 AC3/DTS][Lektor i Napisy PL/Eng][Eng]
[DivX - XviD] Cyborg *1989* [BRRip] [XviD-Shadow] [Lektor PL]
Szczegóły torrenta
Trackerhttp://tracker.torrenty.org:6969/announce
Kategoria:Filmy » DivX - XviD
Dodane18/01/2009 09:01:30
Ostatnie Uaktualnienie13/09/2013 10:25:54
NIKT JESZCZE NIE DODAŁ KOMENTARZA

DODAJ KOMENTARZ
Więcej Emoticon



Wstecz

Żaden z opisanych na stronie plików nie jest przetrzymywany na serwerze. Administrator strony immortaltorrent.pl nie może ponieść konsekwencji prawnych za to co użytkownicy zamieszczają lub piszą na stronie.
Nie możesz używać tego serwisu do rozpowszechniania lub ściągania materiałów do których nie masz odpowiednich praw lub licencji. Użytkownicy zobowiązani są do przestrzeganie tych zasad.
Rejestracja konta jest jednoznaczna z akceptacją zasad.

2018 © immortaltorrent.pl


Najlepsze strony Torrentowe