Torrentów: 138056      Ranga: Go¶ć               Stwórz konto Odzyskiwanie hasła


Kategorie
Filmy
 ⇒ DivX - XviD
 ⇒ RMVB
 ⇒ DVD-R
 ⇒ TV + Seriale
 ⇒ HDTV-HD
 ⇒ VCD - SVCD
 ⇒ x 264
 ⇒  3D
Gry
 ⇒ Gry PC
 ⇒ Gry Konsole
 ⇒ xbox360
Muzyka
 ⇒ Muzyka
 ⇒ Teledyski/Koncerty
Ksi±żki - Komiksy
 ⇒ E-Booki + Audio
 ⇒ Komiksy
Inne
 ⇒ XXX
 ⇒ Dla Dzieci
 ⇒ Sport
 ⇒ Pozostałe - Różne
 ⇒ Manga - Anime
 ⇒ GSM - PDA
Aplikacje
 ⇒ Windows
 ⇒ Linux + Macintosh



Detale torrenta

Piraci-Pirates (1986)[BRRip 1080p x264 by alE13 AC3]Lektor i Napisy PL/Eng][Eng/Fre]
Kondycja:
Dodane: 04/07/2017
Rozmiar: 8.05 GB
Uploader: alE13

seed(ów): 1
leecher(ów): 0
Pobrane: 0





Ocena: N/A



http://www.imdb.com/title/tt0091757/
http://www.filmweb.pl/film/Piraci-1986-1106

Plik zawiera Sample.

reżyseria: Roman Polański
scenariusz: Roman Polański,Gérard Brach
gatunek: Komedia,Kostiumowy,Przygodowy
produkcja: Francja,Tunezja
premiera: 08-05-1986
muzyka:         Philippe Sarde
zdjęcia:        Witold Sobociński
czas:           2h 1min

opis:

The adventures of pirate Captain Red and his first mate Frog.

Kapitan Red i Żaba to dwaj piraci. Gdy staj± przed nieoczekiwan± szans± na zdobycie skarbu,
nie zamierzaj± jej zmarnować.

http://i.imgur.com/iSQJcmS.jpg
http://i.imgur.com/TmotBZP.jpg
http://i.imgur.com/vg1Ee3X.jpg
http://i.imgur.com/oJfQh4P.jpg

obsada:

Walter Matthau, Cris Campion, Damien Thomas, Władysław Komar

dane techniczne:

Pirates (1986)-alE13.mkv
Format                      : Matroska
Format version              : Version 4 / Version 2
File size                   : 8.00 GiB
Duration                    : 2 h 1 min
Overall bit rate            : 9 442 kb/s
Movie name                  : Pirates (1986)-alE13
Encoded date                : UTC 2017-07-04 03:48:04
Writing application         : mkvmerge v8.1.0 ('Psychedelic Postcard') 64bit
Writing library             : libebml v1.3.1 + libmatroska v1.4.2
Cover                       : Yes
Attachments                 : cover.jpg

Video
ID                          : 1
Format                      : AVC
Format/Info                 : Advanced Video Codec
Format profile              : High@L4.1
Format settings, CABAC      : Yes
Format settings, ReFrames   : 2 frames
Codec ID                    : V_MPEG4/ISO/AVC
Duration                    : 2 h 1 min
Bit rate                    : 8 547 kb/s
Width                       : 1 916 pixels
Height                      : 816 pixels
Display aspect ratio        : 2.35:1
Frame rate mode             : Constant
Frame rate                  : 23.976 (24000/1001) FPS
Color space                 : YUV
Chroma subsampling          : 4:2:0
Bit depth                   : 8 bits
Scan type                   : Progressive
Bits/(Pixel*Frame)          : 0.228
Stream size                 : 7.24 GiB (90%)
Title                       : Pirates (1986)-alE13
Writing library             : x264 core 142
Default                     : Yes
Forced                      : No
Color range                 : Limited
Color primaries             : BT.709
Transfer characteristics    : BT.709
Matrix coefficients         : BT.709

Audio #1
ID                          : 2
Format                      : AC-3
Format/Info                 : Audio Coding 3
Mode extension              : CM (complete main)
Format settings, Endianness : Big
Codec ID                    : A_AC3
Duration                    : 2 h 1 min
Bit rate mode               : Constant
Bit rate                    : 256 kb/s
Channel(s)                  : 2 channels
Channel positions           : Front: L R
Sampling rate               : 48.0 kHz
Frame rate                  : 31.250 FPS (1536 spf)
Compression mode            : Lossy
Stream size                 : 222 MiB (3%)
Title                       : Pirates (1986)-alE13_AC3
Language                    : English
Default                     : No
Forced                      : No

Audio #2
ID                          : 3
Format                      : AC-3
Format/Info                 : Audio Coding 3
Mode extension              : CM (complete main)
Format settings, Endianness : Big
Codec ID                    : A_AC3
Duration                    : 2 h 1 min
Bit rate mode               : Constant
Bit rate                    : 448 kb/s
Channel(s)                  : 6 channels
Channel positions           : Front: L C R, Side: L R, LFE
Sampling rate               : 48.0 kHz
Frame rate                  : 31.250 FPS (1536 spf)
Compression mode            : Lossy
Stream size                 : 389 MiB (5%)
Title                       : Pirates (1986)-alE13_AC3
Language                    : French
Default                     : No
Forced                      : No

Audio #3
ID                          : 4
Format                      : AC-3
Format/Info                 : Audio Coding 3
Mode extension              : CM (complete main)
Format settings, Endianness : Big
Codec ID                    : A_AC3
Duration                    : 2 h 1 min
Bit rate mode               : Constant
Bit rate                    : 192 kb/s
Channel(s)                  : 2 channels
Channel positions           : Front: L R
Sampling rate               : 48.0 kHz
Frame rate                  : 31.250 FPS (1536 spf)
Compression mode            : Lossy
Stream size                 : 167 MiB (2%)
Title                       : Pirates (1986)-alE13_AC3
Language                    : Polish
Default                     : Yes
Forced                      : No

Text #1
ID                          : 5
Format                      : UTF-8
Codec ID                    : S_TEXT/UTF8
Codec ID/Info               : UTF-8 Plain Text
Duration                    : 1 h 56 min
Bit rate                    : 35 b/s
Count of elements           : 769
Stream size                 : 30.1 KiB (0%)
Title                       : Pirates (1986)-alE13
Language                    : Polish
Default                     : No
Forced                      : No

Text #2
ID                          : 6
Format                      : UTF-8
Codec ID                    : S_TEXT/UTF8
Codec ID/Info               : UTF-8 Plain Text
Duration                    : 1 h 53 min
Bit rate                    : 39 b/s
Count of elements           : 769
Stream size                 : 33.0 KiB (0%)
Title                       : Pirates (1986)-alE13
Language                    : English
Default                     : No
Forced                      : No

Menu
00:00:00.000                : en:00:00:00.000
00:07:56.685                : en:00:07:56.685
00:19:00.765                : en:00:19:00.765
00:28:22.534                : en:00:28:22.534
00:34:57.512                : en:00:34:57.512
00:43:20.598                : en:00:43:20.598
00:51:53.068                : en:00:51:53.068
01:07:03.353                : en:01:07:03.353
01:16:20.242                : en:01:16:20.242
01:24:31.774                : en:01:24:31.775
01:33:25.225                : en:01:33:25.225
01:44:05.489                : en:01:44:05.489
Podobne torrenty
[HDTV-HD] Piraci z Karaibów-Pirates of the Caribbean Pentology (2003-2017)[BRRip 1080p x265 HEVC by alE13 AC3][Lektor/Dubbing i Napisy PL/Eng][Eng]
[x 264] Piraci - Pirates (1986)[BRRip.x264.DTS][Napisy PL][English]
[HDTV-HD] Piraci z Karaibów 5-Pirates of the Caribbean: Dead Men Tell No Tales (2017)-alE13_AC3[WebRip 1080p x264 by alE13 AC3][Dubbing i Napisy PL][Eng]
[DVD-R] Piraci - Pirates *1986* [DVD5] [Lektor i Napisy PL]
[HDTV-HD] Miasto Aniołów-City of Angels (1998)-alE13[BRRip 1080p x264 by alE13 AC3/DTS][Lektor i Napisy PL/Eng][Eng]
[HDTV-HD] Barwy Nocy-Color of night (Director\'s Cut) (1994)-alE13[BRRip 1080p x264 by alE13 AC3][Lektor i Napisy PL/Eng][Eng]
[RMVB] Piraci - Pirates 1986 [DVDRip.RMVB] [Lektor PL]
[DivX - XviD] Podniebni piraci - Sky Pirates (1986) [DVDRip] [XviD-AC3] [CujoAndReksio] [Lektor PL]
[HDTV-HD] Metalowa zemsta-Trick or Treat (1986) [BRRip 1080p by alE13 AC3][Napisy PL/Eng][Eng]
[HDTV-HD] Szybcy i w¶ciekli 8-The Fate of the Furious (2017)-alE13[BRRip 1080p x264 by alE13 AC3/DTS]Napisy PL/Eng][Eng]
Szczegóły torrenta
Trackerhttp://tracker.devil-torrents.pl/announce
Multitracker http://tracker.devil-torrents.pl/announce
http://tracker.torrentyorg.pl/announce
udp://tracker.opentrackr.org:1337/announce
udp://tracker.leechers-paradise.org:6969/announce
udp://tracker.ilibr.org:80/announce
udp://tracker.coppersurfer.tk:6969/announce
udp://p4p.arenabg.ch:1337/announce
udp://inferno.demonoid.pw:3391/announce

Kategoria:Filmy » HDTV-HD
Dodane04/07/2017 06:07:40
Ostatnie Uaktualnienie04/07/2017 06:24:40
Pokaż/Ukryj pliki:
14 plików
NIKT JESZCZE NIE DODAŁ KOMENTARZA

DODAJ KOMENTARZ
Więcej Emoticon



Wstecz

Żaden z opisanych na stronie plików nie jest przetrzymywany na serwerze. Administrator strony immortaltorrent.pl nie może ponieść konsekwencji prawnych za to co użytkownicy zamieszczają lub piszą na stronie.
Nie możesz używać tego serwisu do rozpowszechniania lub ściągania materiałów do których nie masz odpowiednich praw lub licencji. Użytkownicy zobowiązani są do przestrzeganie tych zasad.
Rejestracja konta jest jednoznaczna z akceptacją zasad.

2017 © immortaltorrent.pl


Najlepsze strony Torrentowe