Torrentów: 146310      Ranga: Gosc               Stwórz konto Odzyskiwanie hasła


Kategorie
Filmy
 ⇒ DivX - XviD
 ⇒ RMVB
 ⇒ DVD-R
 ⇒ TV + Seriale
 ⇒ HDTV-HD
 ⇒ VCD - SVCD
 ⇒ x 264
 ⇒  3D
Gry
 ⇒ Gry PC
 ⇒ Gry Konsole
 ⇒ xbox360
Muzyka
 ⇒ Muzyka
 ⇒ Teledyski/Koncerty
Książki - Komiksy
 ⇒ E-Booki + Audio
 ⇒ Komiksy
Inne
 ⇒ XXX
 ⇒ Dla Dzieci
 ⇒ Sport
 ⇒ Pozostałe - Różne
 ⇒ Manga - Anime
 ⇒ GSM - PDA
Aplikacje
 ⇒ Windows
 ⇒ Linux + Macintosh



Detale torrenta

Marc Dorcel - La Venus Bleue
Kondycja:
Dodane: 18/01/2009
Rozmiar: 638.82 MB
Uploader: Anonimowy
seed(ów): 1
leecher(ów): 1
Pobrane: 2





Ocena: N/A

Video
Format                           : MPEG-4 Visual
Codec ID                         : DIV3
Codec ID/Hint                    : DivX 3 Low
Duration                         : 1h 37mn
Bit rate                         : 775 Kbps
Width                            : 512 pixels
Height                           : 400 pixels
Display aspect ratio             : 1.280
Frame rate                       : 25.000 fps
Resolution                       : 24 bits
Bits/(Pixel*Frame)               : 0.151
Stream size                      : 543 MiB (85%)

Audio
Format                           : MPEG Audio
Format version                   : Version 1
Format profile                   : Layer 3
Codec ID                         : 55
Codec ID/Hint                    : MP3
Duration                         : 1h 37mn
Bit rate mode                    : Constant
Bit rate                         : 128 Kbps
Channel(s)                       : 2 channels
Sampling rate                    : 44.1 KHz
Resolution                       : 16 bits
Stream size                      : 89.4 MiB (14%)
Alignment                        : Split accross interleaves
Interleave, duration             : 40 ms (1.00 video frame)
Interleave, preload duration     : 467 ms
Podobne torrenty
[Muzyka] Venus & Marc - Xummertime (Summertime) (CDSingle) (1994)
[XXX] Marc Dorcel
[XXX] Marc Dorcel
[XXX] Marc Dorcel - Pornopoker
[XXX] Marc Dorcel - Chaudes
[XXX] Marc Dorcel - Sex Game
[XXX] Marc Dorcel - La Soubrette
[XXX] Marc Dorcel - The Governess
[XXX] Marc Dorcel - Elixir
[XXX] Marc Dorcel - Brulante
Szczegóły torrenta
Trackerhttp://denis.stalker.h3q.com:80/announce
Kategoria:Inne » XXX
Dodane18/01/2009 10:01:06
Ostatnie Uaktualnienie28/12/2012 07:46:14
NIKT JESZCZE NIE DODAŁ KOMENTARZA

DODAJ KOMENTARZ
Więcej Emoticon



Wstecz

Żaden z opisanych na stronie plików nie jest przetrzymywany na serwerze. Administrator strony immortaltorrent.pl nie może ponieść konsekwencji prawnych za to co użytkownicy zamieszczają lub piszą na stronie.
Nie możesz używać tego serwisu do rozpowszechniania lub ściągania materiałów do których nie masz odpowiednich praw lub licencji. Użytkownicy zobowiązani są do przestrzeganie tych zasad.
Rejestracja konta jest jednoznaczna z akceptacją zasad.

2018 © immortaltorrent.pl


Najlepsze strony Torrentowe