Torrentów: 135460      Ranga: Gość               Stwórz konto Odzyskiwanie hasła


Kategorie
Filmy
 ⇒ DivX - XviD
 ⇒ RMVB
 ⇒ DVD-R
 ⇒ TV + Seriale
 ⇒ HDTV-HD
 ⇒ VCD - SVCD
 ⇒ x 264
 ⇒  3D
Gry
 ⇒ Gry PC
 ⇒ Gry Konsole
 ⇒ xbox360
Muzyka
 ⇒ Muzyka
 ⇒ Teledyski/Koncerty
Książki - Komiksy
 ⇒ E-Booki + Audio
 ⇒ Komiksy
Inne
 ⇒ XXX
 ⇒ Dla Dzieci
 ⇒ Sport
 ⇒ Pozostałe - Różne
 ⇒ Manga - Anime
 ⇒ GSM - PDA
Aplikacje
 ⇒ Windows
 ⇒ Linux + Macintosh



Detale torrenta

Firma Strach-Fear, Inc. (2016)[BRRip 1080p x264 by alE13 AC3/DTS][Napisy PL/Eng][Eng]
Kondycja:
Dodane: 02/08/2017
Rozmiar: 7.68 GB
Uploader: alE13

seed(ów): 1
leecher(ów): 0
Pobrane: 0





Ocena: N/A



http://www.imdb.com/title/tt3560148/
http://www.filmweb.pl/film/Fear%2C+Inc.-2016-763122

Plik zawiera Sample.

reżyseria: Vincent Masciale
scenariusz: Luke Barnett
gatunek: Horror,Komedia
produkcja: USA
premiera: 15-05-2016
muzyka:         Dustin Morgan
zdjęcia:        Shan Liljestrand
czas:           1h 31min

opis:

A horror junkie and his friends sign up with a company that brings their customer's greatest fears to life.

Spragniony mocnych wrażeń amator horrorów, decyduje się zgłosić do firmy zajmującej się organizowaniem strasznych
eventów, nie spodziewa się najgorszego.

http://i.imgur.com/TiITl2A.jpg
http://i.imgur.com/ClaTa1E.jpg
http://i.imgur.com/5nxvTMR.jpg
http://i.imgur.com/Uu1HXi8.jpg

obsada:

Lucas Neff, Caitlin Stasey, Chris Marquette

dane techniczne:

Fear, Inc. (2016)-alE13.mkv
Format                      : Matroska
Format version              : Version 4 / Version 2
File size                   : 7.62 GiB
Duration                    : 1 h 31 min
Overall bit rate mode       : Variable
Overall bit rate            : 11.9 Mb/s
Movie name                  : Fear, Inc. (2016)-alE13
Encoded date                : UTC 2017-08-02 14:11:16
Writing application         : mkvmerge v8.1.0 ('Psychedelic Postcard') 64bit
Writing library             : libebml v1.3.1 + libmatroska v1.4.2
Cover                       : Yes
Attachments                 : Cover.jpg

Video
ID                          : 1
Format                      : AVC
Format/Info                 : Advanced Video Codec
Format profile              : High@L4
Format settings, CABAC      : Yes
Format settings, RefFrames  : 3 frames
Codec ID                    : V_MPEG4/ISO/AVC
Duration                    : 1 h 31 min
Bit rate mode               : Variable
Bit rate                    : 9 731 kb/s
Maximum bit rate            : 20.0 Mb/s
Width                       : 1 920 pixels
Height                      : 800 pixels
Display aspect ratio        : 2.40:1
Frame rate mode             : Constant
Frame rate                  : 23.976 (24000/1001) FPS
Standard                    : PAL
Color space                 : YUV
Chroma subsampling          : 4:2:0
Bit depth                   : 8 bits
Scan type                   : Progressive
Bits/(Pixel*Frame)          : 0.264
Stream size                 : 6.24 GiB (82%)
Title                       : Fear, Inc. (2016)-alE13
Default                     : Yes
Forced                      : No
Color range                 : Limited
Color primaries             : BT.709
Transfer characteristics    : BT.709
Matrix coefficients         : BT.709

Audio #1
ID                          : 2
Format                      : DTS
Format/Info                 : Digital Theater Systems
Mode                        : 16
Format settings, Endianness : Big
Codec ID                    : A_DTS
Duration                    : 1 h 31 min
Bit rate mode               : Constant
Bit rate                    : 1 509 kb/s
Channel(s)                  : 6 channels
Channel positions           : Front: L C R, Side: L R, LFE
Sampling rate               : 48.0 kHz
Frame rate                  : 93.750 FPS (512 SPF)
Bit depth                   : 16 bits
Compression mode            : Lossy
Stream size                 : 991 MiB (13%)
Title                       : Fear, Inc. (2016)-alE13_DTS
Language                    : English
Default                     : No
Forced                      : No

Audio #2
ID                          : 5
Format                      : AC-3
Format/Info                 : Audio Coding 3
Format settings, Endianness : Big
Codec ID                    : A_AC3
Duration                    : 1 h 31 min
Bit rate mode               : Constant
Bit rate                    : 640 kb/s
Channel(s)                  : 6 channels
Channel positions           : Front: L C R, Side: L R, LFE
Sampling rate               : 48.0 kHz
Frame rate                  : 31.250 FPS (1536 SPF)
Bit depth                   : 16 bits
Compression mode            : Lossy
Stream size                 : 420 MiB (5%)
Title                       : Fear, Inc. (2016)-alE13
Language                    : English
Service kind                : Complete Main
Default                     : Yes
Forced                      : No

Text #1
ID                          : 3
Format                      : UTF-8
Codec ID                    : S_TEXT/UTF8
Codec ID/Info               : UTF-8 Plain Text
Duration                    : 1 h 26 min
Bit rate                    : 72 b/s
Count of elements           : 1567
Stream size                 : 46.4 KiB (0%)
Title                       : Fear, Inc. (2016)-alE13
Language                    : English
Default                     : No
Forced                      : No

Text #2
ID                          : 4
Format                      : UTF-8
Codec ID                    : S_TEXT/UTF8
Codec ID/Info               : UTF-8 Plain Text
Duration                    : 1 h 27 min
Bit rate                    : 51 b/s
Count of elements           : 944
Stream size                 : 33.0 KiB (0%)
Title                       : Fear, Inc. (2016)-alE13
Language                    : Polish
Default                     : Yes
Forced                      : No
Podobne torrenty
[HDTV-HD] Narodziny Strachu-Rising Fear (2016)[WEBRip 1080p x264 by alE13 AC3][Napisy PL][Eng]
[HDTV-HD] Ben-Hur(2016)[BRRip 1080p x264 by alE13 AC3/DTS]Napisy PL/England][Eng]
[HDTV-HD] Daylight\'s End (2016)[BRRip 1080p x264 by alE13 AC3][Napisy PL][Eng]
[HDTV-HD] Siedmiu wspaniałych-The Magnificent Seven (2016)[BRRip 1080p x264 by alE13 AC3/DTS][Napisy PL/Eng][Eng]
[HDTV-HD] Miasto Grzechu-City of Sin (2016)[BRRip 1080p x264 by alE13 AC3/DTS][Napisy PL][Eng]
[HDTV-HD] Odstrzał-Free Fire (2016)[BRRip 1080p x264 by alE13 AC3/DTS][Napisy PL][Eng]
[ 3D] Wielki Mur-The Great Wall 3D (2016)[BRRip 1080p x264 by alE13 AC3/DTS][Lektor i Napisy PL/Eng][Eng]
[HDTV-HD] Tygrysy Kolei-Railroad Tigers (2016)[BRRip 1080p x264 by alE13 AC3/DTS][Napisy PL/Eng][Chi]
[HDTV-HD] Rebeliant-Free State of Jones (2016)[BRRip 1080p x264 by alE13 AC3/DTS][Lektor i Napisy Eng/Rus][Eng]
[HDTV-HD] Operacja Mekong-Mei Gong He Xing Dong (2016)[BRRip 1080p x264 by alE13 AC3][Napisy PL/Eng/Chi][Chinese]
Szczegóły torrenta
Trackerhttp://tracker.devil-torrents.pl/announce
Multitracker http://tracker.devil-torrents.pl/announce
http://tracker.torrentyorg.pl/announce
udp://tracker.opentrackr.org:1337/announce
udp://tracker.leechers-paradise.org:6969/announce
udp://tracker.ilibr.org:80/announce
udp://tracker.coppersurfer.tk:6969/announce
udp://p4p.arenabg.ch:1337/announce
udp://inferno.demonoid.pw:3391/announce

Kategoria:Filmy » HDTV-HD
Dodane02/08/2017 16:08:19
Ostatnie Uaktualnienie02/08/2017 16:56:19
Pokaż/Ukryj pliki:
13 plików
NIKT JESZCZE NIE DODAŁ KOMENTARZA

DODAJ KOMENTARZ
Więcej Emoticon



Wstecz

Żaden z opisanych na stronie plików nie jest przetrzymywany na serwerze. Administrator strony immortaltorrent.pl nie może ponieść konsekwencji prawnych za to co użytkownicy zamieszczają lub piszą na stronie.
Nie możesz używać tego serwisu do rozpowszechniania lub ściągania materiałów do których nie masz odpowiednich praw lub licencji. Użytkownicy zobowiązani są do przestrzeganie tych zasad.
Rejestracja konta jest jednoznaczna z akceptacją zasad.

2017 © immortaltorrent.pl


Najlepsze strony Torrentowe