Torrentów: 135293      Ranga: Gość               Stwórz konto Odzyskiwanie hasła


Kategorie
Filmy
 ⇒ DivX - XviD
 ⇒ RMVB
 ⇒ DVD-R
 ⇒ TV + Seriale
 ⇒ HDTV-HD
 ⇒ VCD - SVCD
 ⇒ x 264
 ⇒  3D
Gry
 ⇒ Gry PC
 ⇒ Gry Konsole
 ⇒ xbox360
Muzyka
 ⇒ Muzyka
 ⇒ Teledyski/Koncerty
Książki - Komiksy
 ⇒ E-Booki + Audio
 ⇒ Komiksy
Inne
 ⇒ XXX
 ⇒ Dla Dzieci
 ⇒ Sport
 ⇒ Pozostałe - Różne
 ⇒ Manga - Anime
 ⇒ GSM - PDA
Aplikacje
 ⇒ Windows
 ⇒ Linux + Macintosh



Detale torrenta

Infiltracja-The Departed (2006)[BRRip 1080p x264 by alE13 AC3][Lektor i Napisy PL/Eng][Eng]
Kondycja:
Dodane: 20/12/2016
Rozmiar: 8.18 GB
Uploader: alE13

seed(ów): 4
leecher(ów): 4
Pobrane: 41





Ocena: N/A



http://www.filmweb.pl/Infiltracja
http://www.imdb.com/title/tt0407887/

Plik zawiera Sample.

reżyseria: Martin Scorsese
scenariusz: William Monahan,Felix Chong,Alan Makw
gatunek: Kryminał
produkcja: Hongkong,USA
premiera: 26-08-2006
muzyka:         Howard Shore
zdjęcia:        Michael Ballhaus
czas:           2h 31mn

opis:

An undercover cop and a mole in the police attempt to identify each other while infiltrating an Irish gang
in South Boston.

Tajny policjant w szeregach grupy przestępczej i informator mafii w bostońskiej jednostce dochodzeniowej
toczą ze sobą śmiertelną rozgrywkę.

http://i.imgur.com/lZbrJlC.jpg
http://i.imgur.com/MZkSMTl.jpg
http://i.imgur.com/gAjOrIY.jpg
http://i.imgur.com/jkQCOpT.jpg

obsada:

Leonardo DiCaprio, Matt Damon, Jack Nicholson

dane techniczne:

The Departed (2006)-alE13.mkv
Format                      : Matroska
Format version              : Version 4 / Version 2
File size                   : 8.12 GiB
Duration                    : 2 h 31 min
Overall bit rate mode       : Variable
Overall bit rate            : 7 675 kb/s
Movie name                  : The Departed (2006)-alE13
Encoded date                : UTC 2016-12-20 16:12:40
Writing application         : mkvmerge v8.1.0 ('Psychedelic Postcard') 64bit
Writing library             : libebml v1.3.1 + libmatroska v1.4.2
Cover                       : Yes
Attachments                 : cover.jpg

Video
ID                          : 1
Format                      : AVC
Format/Info                 : Advanced Video Codec
Format profile              : High@L4
Format settings, CABAC      : Yes
Format settings, ReFrames   : 3 frames
Codec ID                    : V_MPEG4/ISO/AVC
Duration                    : 2 h 31 min
Bit rate mode               : Variable
Bit rate                    : 6 970 kb/s
Maximum bit rate            : 20.0 Mb/s
Width                       : 1 920 pixels
Height                      : 1 080 pixels
Display aspect ratio        : 16:9
Frame rate mode             : Constant
Frame rate                  : 23.976 (24000/1001) FPS
Standard                    : PAL
Color space                 : YUV
Chroma subsampling          : 4:2:0
Bit depth                   : 8 bits
Scan type                   : Progressive
Bits/(Pixel*Frame)          : 0.140
Stream size                 : 7.37 GiB (91%)
Title                       : The Departed (2006)-alE13
Default                     : Yes
Forced                      : No
Color range                 : Limited
Color primaries             : BT.709
Transfer characteristics    : BT.709
Matrix coefficients         : BT.709

Audio #1
ID                          : 2
Format                      : AC-3
Format/Info                 : Audio Coding 3
Mode extension              : CM (complete main)
Format settings, Endianness : Big
Codec ID                    : A_AC3
Duration                    : 2 h 31 min
Bit rate mode               : Constant
Bit rate                    : 448 kb/s
Channel(s)                  : 6 channels
Channel positions           : Front: L C R, Side: L R, LFE
Sampling rate               : 48.0 kHz
Frame rate                  : 31.250 FPS (1536 spf)
Bit depth                   : 16 bits
Compression mode            : Lossy
Stream size                 : 485 MiB (6%)
Title                       : The Departed (2006)-alE13_AC3
Language                    : English
Default                     : No
Forced                      : No

Audio #2
ID                          : 3
Format                      : AC-3
Format/Info                 : Audio Coding 3
Mode extension              : CM (complete main)
Format settings, Endianness : Big
Codec ID                    : A_AC3
Duration                    : 2 h 31 min
Bit rate mode               : Constant
Bit rate                    : 256 kb/s
Channel(s)                  : 2 channels
Channel positions           : Front: L R
Sampling rate               : 48.0 kHz
Frame rate                  : 31.250 FPS (1536 spf)
Bit depth                   : 16 bits
Compression mode            : Lossy
Delay relative to video     : 5 s 200 ms
Stream size                 : 277 MiB (3%)
Title                       : The Departed (2006)-alE13_AC3
Language                    : Polish
Default                     : Yes
Forced                      : No

Text #1
ID                          : 4
Format                      : UTF-8
Codec ID                    : S_TEXT/UTF8
Codec ID/Info               : UTF-8 Plain Text
Duration                    : 2 h 23 min
Bit rate                    : 65 b/s
Count of elements           : 2073
Stream size                 : 68.5 KiB (0%)
Title                       : The Departed (2006)-alE13
Language                    : Polish
Default                     : Yes
Forced                      : No

Text #2
ID                          : 5
Format                      : UTF-8
Codec ID                    : S_TEXT/UTF8
Codec ID/Info               : UTF-8 Plain Text
Duration                    : 2 h 23 min
Bit rate                    : 71 b/s
Count of elements           : 1905
Stream size                 : 74.7 KiB (0%)
Title                       : The Departed (2006)-alE13
Language                    : English
Default                     : No
Forced                      : No


Podobne torrenty
[HDTV-HD] Infiltracja - The Departed *2006* [1080p.BluRay.x264]
[x 264] Infiltracja - The Departed 2006 [BRRip.x264]
[RMVB] Infiltracja - The Departed *2006* [BRRip] RMVB] [Lektor PL]
[DivX - XviD] Infiltracja - The Departed *2006* [720p] [BRRip] [XviD] [AC3-LTS] [Lektor PL]
[RMVB] Infiltracja - The Departed *2006* [DVDRip] [RMVB] [Lektor PL]
[DivX - XviD] Infiltracja - The Departed (2006) [DVDRip.XviD] [Lektor PL]
[DivX - XviD] Infiltracja - The Departed [DVDRip.XviD] [2006] [ENG]
[DivX - XviD] Infiltracja - The Departed (2006) [DVDRip.XviD]
[HDTV-HD] Coś-The Thing (1982)[BRRip 1080p x264 by alE13 AC3][Lektor i Napisy PL/Eng][Eng]
[HDTV-HD] Gladiator(2000)[BRRip 1080p x264 by alE13 AC3][Lektor i Napisy PL/Eng][Eng]
Szczegóły torrenta
Trackerhttp://auratorrent.pl:8089/announce
Multitracker http://auratorrent.pl:8089/announce
http://pow7.com:80/announce
http://pow7.com/announce
http://tracker.tfile.me/announce
http://retracker.omsk.ru:2710/announce
http://mgtracker.org:2710/announce
udp://tracker.leechers-paradise.org:6969/announce
http://mgtracker.org:2710/announce
http://pow7.com:80/announce
http://pow7.com/announce
http://tracker.torrentyorg.pl/announce
udp://inferno.demonoid.ooo:3392/announce
udp://inferno.demonoid.pw:3393/announce
udp://tracker.coppersurfer.tk:6969/announce

Kategoria:Filmy » HDTV-HD
Dodane20/12/2016 17:12:22
Ostatnie Uaktualnienie28/12/2016 00:19:00
Pokaż/Ukryj pliki:
12 plików
NIKT JESZCZE NIE DODAŁ KOMENTARZA

DODAJ KOMENTARZ
Więcej Emoticon



Wstecz

Żaden z opisanych na stronie plików nie jest przetrzymywany na serwerze. Administrator strony immortaltorrent.pl nie może ponieść konsekwencji prawnych za to co użytkownicy zamieszczają lub piszą na stronie.
Nie możesz używać tego serwisu do rozpowszechniania lub ściągania materiałów do których nie masz odpowiednich praw lub licencji. Użytkownicy zobowiązani są do przestrzeganie tych zasad.
Rejestracja konta jest jednoznaczna z akceptacją zasad.

2017 © immortaltorrent.pl


Najlepsze strony Torrentowe