Torrentów: 134355      Ranga: Gość               Stwórz konto Odzyskiwanie hasła


Kategorie
Filmy
 ⇒ DivX - XviD
 ⇒ RMVB
 ⇒ DVD-R
 ⇒ TV + Seriale
 ⇒ HDTV-HD
 ⇒ VCD - SVCD
 ⇒ x 264
 ⇒  3D
Gry
 ⇒ Gry PC
 ⇒ Gry Konsole
 ⇒ xbox360
Muzyka
 ⇒ Muzyka
 ⇒ Teledyski/Koncerty
Książki - Komiksy
 ⇒ E-Booki + Audio
 ⇒ Komiksy
Inne
 ⇒ XXX
 ⇒ Dla Dzieci
 ⇒ Sport
 ⇒ Pozostałe - Różne
 ⇒ Manga - Anime
 ⇒ GSM - PDA
Aplikacje
 ⇒ Windows
 ⇒ Linux + Macintosh



Detale torrenta

Hombre (1967)[BRRip.1080p.x264.AC3/DTS][Lektor i Napisy PL/Eng][Eng]
Kondycja:
Dodane: 10/11/2016
Rozmiar: 7.93 GB
Uploader: alE13

seed(ów): 1
leecher(ów): 0
Pobrane: 0





Ocena: N/A



http://www.filmweb.pl/film/Hombre-1967-6188
http://www.imdb.com/title/tt0061770/

reżyseria: Martin Ritt
scenariusz: Harriet Frank Jr., Irving Ravetch
gatunek: Western
produkcja: USA
premiera: 21-03-1967
muzyka:         David Rose
zdjęcia:        James Wong Howe
czas:           01:46:47

opis:

John Russell, disdained by his "respectable" fellow stagecoach passengers because
he was raised by Indians, becomes their only hope for survival when they are set
upon by outlaws.

Jest to opowieść o Indianinie, Apaczu pół krwii białym, który w roku 1880 próbuje
przetrwać wśród białych, gdzieś na południu USA. A wszystko toczy się wokół przejazdu
dyliżansem, w którym spotyka masę ciekawych osobowości.

obsada:

Paul Newman, Fredric March, Richard Boone

dane techniczne:

Hombre (1967)-alE13.mkv
Format                      : Matroska
Format version              : Version 4 / Version 2
File size                   : 7.87 GiB
Duration                    : 1 h 50 min
Overall bit rate mode       : Variable
Overall bit rate            : 10.2 Mb/s
Movie name                  : Hombre (1967)-alE13
Encoded date                : UTC 2016-11-10 13:20:40
Writing application         : mkvmerge v8.1.0 ('Psychedelic Postcard') 64bit
Writing library             : libebml v1.3.1 + libmatroska v1.4.2
Cover                       : Yes
Attachments                 : cover.png

Video
ID                          : 1
Format                      : AVC
Format/Info                 : Advanced Video Codec
Format profile              : High@L4
Format settings, CABAC      : Yes
Format settings, ReFrames   : 3 frames
Codec ID                    : V_MPEG4/ISO/AVC
Duration                    : 1 h 50 min
Bit rate mode               : Variable
Bit rate                    : 8 480 kb/s
Maximum bit rate            : 20.0 Mb/s
Width                       : 1 920 pixels
Height                      : 816 pixels
Display aspect ratio        : 2.35:1
Frame rate mode             : Constant
Frame rate                  : 23.976 (24000/1001) FPS
Standard                    : PAL
Color space                 : YUV
Chroma subsampling          : 4:2:0
Bit depth                   : 8 bits
Scan type                   : Progressive
Bits/(Pixel*Frame)          : 0.226
Stream size                 : 6.55 GiB (83%)
Title                       : Hombre (1967)-alE13
Default                     : Yes
Forced                      : No
Color range                 : Limited
Color primaries             : BT.709
Transfer characteristics    : BT.709
Matrix coefficients         : BT.709

Audio #1
ID                          : 2
Format                      : AC-3
Format/Info                 : Audio Coding 3
Mode extension              : CM (complete main)
Format settings, Endianness : Big
Codec ID                    : A_AC3
Duration                    : 1 h 50 min
Bit rate mode               : Constant
Bit rate                    : 192 kb/s
Channel(s)                  : 2 channels
Channel positions           : Front: L R
Sampling rate               : 48.0 kHz
Frame rate                  : 31.250 FPS (1536 spf)
Bit depth                   : 16 bits
Compression mode            : Lossy
Delay relative to video     : 1 s 100 ms
Stream size                 : 152 MiB (2%)
Title                       : Hombre (1967)-alE13_AC3
Language                    : Polish
Default                     : Yes
Forced                      : No

Audio #2
ID                          : 3
Format                      : DTS
Format/Info                 : Digital Theater Systems
Mode                        : 16
Format settings, Endianness : Big
Codec ID                    : A_DTS
Duration                    : 1 h 50 min
Bit rate mode               : Constant
Bit rate                    : 1 509 kb/s
Channel(s)                  : 2 channels
Channel positions           : Front: L R
Sampling rate               : 48.0 kHz
Frame rate                  : 93.750 FPS (512 spf)
Bit depth                   : 24 bits
Compression mode            : Lossy
Stream size                 : 1.17 GiB (15%)
Title                       : Hombre (1967)-alE13_DTS_Original
Language                    : English
Default                     : No
Forced                      : No

Text #1
ID                          : 4
Format                      : UTF-8
Codec ID                    : S_TEXT/UTF8
Codec ID/Info               : UTF-8 Plain Text
Duration                    : 1 h 43 min
Bit rate                    : 45 b/s
Count of elements           : 912
Stream size                 : 34.3 KiB (0%)
Title                       : Hombre (1967)-alE13
Language                    : Polish
Default                     : Yes
Forced                      : No

Text #2
ID                          : 5
Format                      : UTF-8
Codec ID                    : S_TEXT/UTF8
Codec ID/Info               : UTF-8 Plain Text
Duration                    : 1 h 46 min
Bit rate                    : 54 b/s
Count of elements           : 1176
Stream size                 : 42.3 KiB (0%)
Title                       : Hombre (1967)-alE13
Language                    : English
Default                     : No
Forced                      : No
Podobne torrenty
[RMVB] Hombre 1967 [DVDRip.RMVB]
[HDTV-HD] Coś-The Thing (1982)[BRRip 1080p x264 by alE13 AC3][Lektor i Napisy PL/Eng][Eng]
[HDTV-HD] Gladiator(2000)[BRRip 1080p x264 by alE13 AC3][Lektor i Napisy PL/Eng][Eng]
[HDTV-HD] Centurion (2010)[BRRip 1080p x264 by alE13 DTS/AC3][Lektor i Napisy PL/Eng][Eng]
[HDTV-HD] Bez wyjścia-No Way Out (1987)[BRRip 1080p x264 by alE13 AC3][Lektor i Napisy PL/Eng][Eng]
[HDTV-HD] Equilibrium (2002)[BRRip 1080p x264 by alE13 AC3][Lektor i Napisy PL/Eng][Eng]
[HDTV-HD] 100 Karabinów-100 Rifles (1969) [BRRip 1080p x264 by alE13 AAC/DTS][Lektor i Napisy PL/Eng][Eng]
[HDTV-HD] Kleopatra-Cleopatra (1963)[BRRip 1080p x264 by alE13 AC3/DTS][Lektor i Napisy PL/Eng][Eng]
[HDTV-HD] Arlington Road (1999)[BRRip 1080p x264 by alE13 AC3/DTS][Lektor i Napisy PL/Eng][Eng]
[HDTV-HD] Obława-The Chase (1966)[BRRip 1080p x264 by alE13 AC3/DTS][Lektor i Napisy PL/Eng][Eng]
Szczegóły torrenta
Trackerhttp://tracker.torrentyorg.pl/announce
Multitracker http://tracker.torrentyorg.pl/announce
http://mgtracker.org:2710/announce
http://pow7.com:80/announce
http://pow7.com/announce
udp://tracker.leechers-paradise.org:6969/announce
udp://tracker.coppersurfer.tk:6969/announce
udp://tracker.opentrackr.org:1337/announce
udp://tracker.coppersurfer.tk:6969/announce
udp://tracker.leechers-paradise.org:6969/announce
udp://eddie4.nl:6969/announce
udp://tracker.coppersurfer.tk:6969/announce
udp://p4p.arenabg.com:1337/announce
udp://p4p.arenabg.ch:1337/announce
udp://tracker.internetwarriors.net:1337/announce
udp://tracker.openbittorrent.com:80/announce
udp://tracker.piratepublic.com:1337/announce
udp://tracker.opentrackr.org:1337/announce
udp://explodie.org:6969/announce
udp://p4p.arenabg.ch:1337/announce
udp://inferno.demonoid.ooo:3392/announce
udp://inferno.demonoid.pw:3393/announce
udp://tracker.coppersurfer.tk:6969/announce
udp://zer0day.to:1337/announce
udp://tracker.ilibr.org:6969/announce
udp://tracker.leechers-paradise.org:6969/announce
udp://eddie4.nl:6969/announce
udp://tracker.ilibr.org:80/announce

Kategoria:Filmy » HDTV-HD
Dodane10/11/2016 14:11:16
Ostatnie Uaktualnienie10/11/2016 14:53:17
Pokaż/Ukryj pliki:
14 plików
NIKT JESZCZE NIE DODAŁ KOMENTARZA

DODAJ KOMENTARZ
Więcej Emoticon



Wstecz

Żaden z opisanych na stronie plików nie jest przetrzymywany na serwerze. Administrator strony immortaltorrent.pl nie może ponieść konsekwencji prawnych za to co użytkownicy zamieszczają lub piszą na stronie.
Nie możesz używać tego serwisu do rozpowszechniania lub ściągania materiałów do których nie masz odpowiednich praw lub licencji. Użytkownicy zobowiązani są do przestrzeganie tych zasad.
Rejestracja konta jest jednoznaczna z akceptacją zasad.

2017 © immortaltorrent.pl


Najlepsze strony Torrentowe