Torrentów: 142012      Ranga: Gosc               Stwórz konto Odzyskiwanie hasła


Kategorie
Filmy
 ⇒ DivX - XviD
 ⇒ RMVB
 ⇒ DVD-R
 ⇒ TV + Seriale
 ⇒ HDTV-HD
 ⇒ VCD - SVCD
 ⇒ x 264
 ⇒  3D
Gry
 ⇒ Gry PC
 ⇒ Gry Konsole
 ⇒ xbox360
Muzyka
 ⇒ Muzyka
 ⇒ Teledyski/Koncerty
Książki - Komiksy
 ⇒ E-Booki + Audio
 ⇒ Komiksy
Inne
 ⇒ XXX
 ⇒ Dla Dzieci
 ⇒ Sport
 ⇒ Pozostałe - Różne
 ⇒ Manga - Anime
 ⇒ GSM - PDA
Aplikacje
 ⇒ Windows
 ⇒ Linux + Macintosh



Detale torrenta

Sky High *2005* [DVDRip][Xvid][AC3][Lektor PL]
Kondycja:
Dodane: 28/04/2015
Rozmiar: 1.20 GB
Uploader: Anonimowy

seed(ów): 75
leecher(ów): 28
Pobrane: 176





Ocena: N/A

INFO
produkcja: USA
gatunek: Familijny, Fantasy, Komedia, Akcja
data premiery: 2005-07-29 (wiat)
reyseria Mike Mitchell
scenariusz Robert Schooley, Mark McCorkle
muzyka Michael Giacchino
od lat: 12
czas trwania: 100

Opis:
W tej super przygodzie ze studia Walt Disney Pictures wystpuj prawdziwe gwiazdy Hollywood - Kurt Russell i Kelly Preston. Syn legendarnych super bohaterw Commandera - (Russel) i Jetstream (Preston), mody Will Stronghold rokuje wielkie nadzieje, gdy podejmuje nauk w elitarnej szkole nastawionej na ksztacenie wspczesnych super bohaterw. U Willa jeszcze nie objawia si jego super moc i wydaje si, e bdzie dorasta jako zwyky chopak. Do czasu, wkrtce Will odkrywa co jest jego prawdziw si i przekonuje si, e aby sta si bohaterem trzeba by lojalnym wobec innych i pracowa w zesp.

Obsada:

Michael Angarano .... Will Stronghold
Kurt Russell .... Steve - Kapitan Stronghold
Kelly Preston .... Josie - Jetstream
Danielle Panabaker .... Layla
Mary Elizabeth Winstead .... Gwen Grayson
Nicholas Braun .... Zach
Bruce Campbell .... Trener Boomer
Dee Jay Daniels .... Ethan
Will Harris .... Speed
Kevin Heffernan .... Kierowca Roy Wilson

Dane techniczne:
Format                                   : AVI
Format/Info                              : Audio Video Interleave
File size                                : 1.20 GiB
Duration                                 : 1h 35mn
Overall bit rate                         : 1 795 Kbps

Video
ID                                       : 0
Format                                   : MPEG-4 Visual
Format profile                           : Advanced Simple@L5
Format settings, BVOP                    : 1
Format settings, QPel                    : No
Format settings, GMC                     : No warppoints
Format settings, Matrix                  : Custom
Codec ID                                 : XVID
Codec ID/Hint                            : XviD
Duration                                 : 1h 35mn
Bit rate                                 : 1 594 Kbps
Width                                    : 720 pixels
Height                                   : 320 pixels
Display aspect ratio                     : 2.25:1
Frame rate                               : 25.000 fps
Color space                              : YUV
Chroma subsampling                       : 4:2:0
Bit depth                                : 8 bits
Scan type                                : Progressive
Compression mode                         : Lossy
Bits/(Pixel*Frame)                       : 0.277
Stream size                              : 1.06 GiB (89%)
Writing library                          : XviD 1.2.0.dev47 (UTC 2006-11-01)

Audio
ID                                       : 1
Format                                   : AC-3
Format/Info                              : Audio Coding 3
Mode extension                           : CM (complete main)
Format settings, Endianness              : Big
Codec ID                                 : 2000
Duration                                 : 1h 35mn
Bit rate mode                            : Constant
Bit rate                                 : 192 Kbps
Channel(s)                               : 2 channels
Channel positions                        : Front: L R
Sampling rate                            : 48.0 KHz
Bit depth                                : 16 bits
Compression mode                         : Lossy
Stream size                              : 131 MiB (11%)
Alignment                                : Split accross interleaves
Interleave, duration                     : 40 ms (1.00 video frame)
Interleave, preload duration             : 500 ms
Podobne torrenty
[RMVB] Sky High (2005) [DVDRiP.RMVB] [LEKTOR PL]
[DivX - XviD] Zagniewani modociani - High School High *1996* [DVDRip.XviD] [Lektor PL]
[DivX - XviD] Zagniewani Modociani - High School High *1996* [DVDRip.XviD][ENG]
[DivX - XviD] Zagniewani modociani - High School High *1996* [TVRip] [DivX] [Lektor PL]
[DivX - XviD] Ratujmy Westbrook High - Teachers aka Saving Westbrook High *2013* [WEB-DL] [XviD-KiT] [Lektor PL] [marcinc33]
[DivX - XviD] High School Musical 3: Ostatnia klasa - High School Musical 3 Senior Year *2009* [DVDRip.Xvid] [Dubbing PL]
[DivX - XviD] High School Musical 3: Ostatnia klasa - High School Musical 3: Senior Year (2008) [DVDRip.XviD]
[DivX - XviD] How High 2001 [DVDRip.XviD] [Lektor PL]
[DivX - XviD] High Anxiety 1977 [DVDRip.XviD] [Lektor PL]
[DivX - XviD] High School Musical *2006* [DVDRip.XviD] [Lektor PL]
Szczegóły torrenta
Trackerhttp://torrent.gresille.org/announce
Multitracker http://torrent.gresille.org/announce
http://bttracker.crunchbanglinux.org:6969/announce
udp://tracker.best-torrents.net:6969/announce
http://tracker.torrenty.org:6969/announce
udp://exodus.desync.com:6969

Kategoria:Filmy » DivX - XviD
Dodane28/04/2015 16:04:00
Ostatnie Uaktualnienie28/04/2015 16:33:55
Pokaż/Ukryj pliki:
1 plik
NIKT JESZCZE NIE DODAŁ KOMENTARZA

DODAJ KOMENTARZ
Więcej Emoticon



Wstecz

Żaden z opisanych na stronie plików nie jest przetrzymywany na serwerze. Administrator strony immortaltorrent.pl nie może ponieść konsekwencji prawnych za to co użytkownicy zamieszczają lub piszą na stronie.
Nie możesz używać tego serwisu do rozpowszechniania lub ściągania materiałów do których nie masz odpowiednich praw lub licencji. Użytkownicy zobowiązani są do przestrzeganie tych zasad.
Rejestracja konta jest jednoznaczna z akceptacją zasad.

2018 © immortaltorrent.pl


Najlepsze strony Torrentowe