Torrentów: 139363      Ranga: Go               Stwórz konto Odzyskiwanie hasła


Kategorie
Filmy
 ⇒ DivX - XviD
 ⇒ RMVB
 ⇒ DVD-R
 ⇒ TV + Seriale
 ⇒ HDTV-HD
 ⇒ VCD - SVCD
 ⇒ x 264
 ⇒  3D
Gry
 ⇒ Gry PC
 ⇒ Gry Konsole
 ⇒ xbox360
Muzyka
 ⇒ Muzyka
 ⇒ Teledyski/Koncerty
Książki - Komiksy
 ⇒ E-Booki + Audio
 ⇒ Komiksy
Inne
 ⇒ XXX
 ⇒ Dla Dzieci
 ⇒ Sport
 ⇒ Pozostałe - Różne
 ⇒ Manga - Anime
 ⇒ GSM - PDA
Aplikacje
 ⇒ Windows
 ⇒ Linux + Macintosh



Detale torrenta

Mali mistrzowie sztuki przetrwania-Little Monsters Hide & Cheat 3D (2012)[BRRip 1080p x264 by alE13 AC3][Lektor i Napisy PL/Eng][At]
Kondycja:
Dodane: 01/10/2017
Rozmiar: 7.85 GB
Uploader: alE13

seed(ów): 1
leecher(ów): 0
Pobrane: 0





Ocena: N/A

[img]https://i.imgur.com/MmDhNGh.jpg[/img]

Film w wersji 3D Half Over/Under.
Uwaga, brakuje audio PL ok. ptorej min. dodaam w to miejsce napisy PL.
Lektor: Krystyna Czubwna.
Plik zawiera Sample.


produkcja:  Austria
data:       2012
reyseria:  Kurt Mndl
scenariusz: Kurt Mndl
gatunek:    dokument, przyrodniczy
zdjcia:    Franz Cee, Kurt Mndl
czas:       00:51:48

opis:

Presenting some of the animal kingdom's strangest survival strategies. The most startling behaviour
patterns aren't found among the classic big animals such as lions or polar bears, but among nature's
smaller creatures: Poison dart frogs, chameleons, praying mantises and scorpions, to name only a few.

Wiksze zwierzta, jak sonie, krokodyle, a nawet koty czy psy posiadaj si, ktra uatwia im przetrwanie.
Tymczasem mniejsze stworzenia s zmuszone uywa wysublimowanych metod, by przey. Wrd wypracowanych
sposobw na utrzymanie si przy yciu jest kamufla, trucizna w skrze, jaskrawe barwy, jad czy kolce. Dziki
trjwymiarowej technologii i kamerom pozwalajcym na due zblienia widzowie mog z bliska zobaczy, jak skorpiony,
aby, owady i pajki stosuj te najbardziej wyszukane techniki obrony i ataku.

https://i.imgur.com/NfbSUq5.jpg
https://i.imgur.com/HdqvNaF.jpg
https://i.imgur.com/qfSm3sq.jpg
https://i.imgur.com/fiTc3N0.jpg

dane techniczne:

Little Monsters Hide & Cheat 3D (2012)-alE13.mkv
Format                      : Matroska
Format version              : Version 4 / Version 2
File size                   : 7.81 GiB
Duration                    : 51 min 48 s
Overall bit rate            : 21.6 Mb/s
Movie name                  : Little Monsters Hide & Cheat 3D (2012)-alE13
Encoded date                : UTC 2017-10-01 07:40:26
Writing application         : mkvmerge v8.1.0 ('Psychedelic Postcard') 64bit
Writing library             : libebml v1.3.1 + libmatroska v1.4.2
Cover                       : Yes
Attachments                 : Cover.jpg

Video
ID                          : 1
Format                      : AVC
Format/Info                 : Advanced Video Codec
Format profile              : High@L4.1
Format settings, CABAC      : Yes
Format settings, RefFrames  : 2 frames
Codec ID                    : V_MPEG4/ISO/AVC
Duration                    : 51 min 48 s
Bit rate                    : 20.7 Mb/s
Width                       : 1 920 pixels
Height                      : 1 080 pixels
Display aspect ratio        : 16:9
Frame rate mode             : Constant
Frame rate                  : 23.976 (24000/1001) FPS
Color space                 : YUV
Chroma subsampling          : 4:2:0
Bit depth                   : 8 bits
Scan type                   : Progressive
Bits/(Pixel*Frame)          : 0.416
Stream size                 : 7.48 GiB (96%)
Title                       : Little Monsters Hide & Cheat 3D (2012)-alE13
Writing library             : x264 core 142
Default                     : Yes
Forced                      : No
Color range                 : Limited
Color primaries             : BT.709
Transfer characteristics    : BT.709
Matrix coefficients         : BT.709

Audio #1
ID                          : 2
Format                      : AC-3
Format/Info                 : Audio Coding 3
Format settings, Endianness : Big
Codec ID                    : A_AC3
Duration                    : 51 min 48 s
Bit rate mode               : Constant
Bit rate                    : 640 kb/s
Channel(s)                  : 6 channels
Channel positions           : Front: L C R, Side: L R, LFE
Sampling rate               : 48.0 kHz
Frame rate                  : 31.250 FPS (1536 SPF)
Bit depth                   : 16 bits
Compression mode            : Lossy
Stream size                 : 237 MiB (3%)
Title                       : Little Monsters Hide & Cheat 3D (2012)-alE13_AC3
Language                    : English
Service kind                : Complete Main
Default                     : No
Forced                      : No

Audio #2
ID                          : 3
Format                      : AC-3
Format/Info                 : Audio Coding 3
Codec ID                    : A_AC3
Duration                    : 50 min 1 s
Bit rate                    : 256 kb/s
Channel(s)                  : 2 channels
Sampling rate               : 48.0 kHz
Frame rate                  : 31.250 FPS (1536 SPF)
Compression mode            : Lossy
Stream size                 : 91.6 MiB (1%)
Title                       : Little Monsters Hide & Cheat 3D (2012)-alE13
Language                    : Polish (Krystyna Czubwna)
Default                     : Yes
Forced                      : No

Text #1
ID                          : 4
Format                      : UTF-8
Codec ID                    : S_TEXT/UTF8
Codec ID/Info               : UTF-8 Plain Text
Duration                    : 1 min 34 s
Bit rate                    : 57 b/s
Count of elements           : 12
Stream size                 : 681 Bytes (0%)
Title                       : Little Monsters Hide & Cheat 3D (2012)-alE13_SRT
Language                    : Polish
Default                     : Yes
Forced                      : No

Text #2
ID                          : 5
Format                      : UTF-8
Codec ID                    : S_TEXT/UTF8
Codec ID/Info               : UTF-8 Plain Text
Duration                    : 51 min 3 s
Bit rate                    : 60 b/s
Count of elements           : 416
Stream size                 : 22.6 KiB (0%)
Title                       : Little Monsters Hide & Cheat 3D (2012)-alE13
Language                    : English
Default                     : No
Forced                      : No

Menu
00:00:00.000                : :1
00:10:07.982                : :2
00:20:10.000                : :3
00:29:48.954                : :4
00:40:05.987                : :5
Podobne torrenty
[ 3D] Faceci w Czerni 3-Mеn in Blасk 3 3D (2012)[BRRip 1080p x264 by alE13 AC3][Lektor i Napisy PL/Eng][Eng]
[HDTV-HD] Miasto Aniow-City of Angels (1998)-alE13[BRRip 1080p x264 by alE13 AC3/DTS][Lektor i Napisy PL/Eng][Eng]
[HDTV-HD] Barwy Nocy-Color of night (Director\'s Cut) (1994)-alE13[BRRip 1080p x264 by alE13 AC3][Lektor i Napisy PL/Eng][Eng]
[HDTV-HD] Andre Rieu-Home for the Holidays (2012)[BRRip 1080p x264 by alE13 AC3/DTSPCM][Napisy PL/Multi Sub][Eng]
[HDTV-HD] Córki dancingu-The Lure (2015)-alE13[BRRip 1080p x264 by alE13 AC3/Napisy Eng][PL]
[HDTV-HD] Szybcy i wciekli 8-The Fate of the Furious (2017)-alE13[BRRip 1080p x264 by alE13 AC3/DTS]Napisy PL/Eng][Eng]
[HDTV-HD] Zabi Gunthera-Killing Gunther (2017)-alE13[BRRip 1080p x264 by alE13 AC3/DTS][Napisy PL/Eng][Eng]
[HDTV-HD] Bez wyjcia-No Way Out (1987)[BRRip 1080p x264 by alE13 AC3][Lektor i Napisy PL/Eng][Eng]
[HDTV-HD] Co-The Thing (1982)[BRRip 1080p x264 by alE13 AC3][Lektor i Napisy PL/Eng][Eng]
[HDTV-HD] Gladiator(2000)[BRRip 1080p x264 by alE13 AC3][Lektor i Napisy PL/Eng][Eng]
Szczegóły torrenta
Trackerhttp://tracker.devil-torrents.pl/announce
Multitracker http://tracker.devil-torrents.pl/announce
http://tracker.torrentyorg.pl/announce
udp://tracker.opentrackr.org:1337/announce
udp://tracker.leechers-paradise.org:6969/announce
udp://tracker.ilibr.org:80/announce
udp://tracker.coppersurfer.tk:6969/announce
udp://p4p.arenabg.ch:1337/announce
udp://inferno.demonoid.pw:3391/announce

Kategoria:Filmy » 3D
Dodane01/10/2017 10:10:01
Ostatnie Uaktualnienie01/10/2017 10:00:02
Pokaż/Ukryj pliki:
13 plików
NIKT JESZCZE NIE DODAŁ KOMENTARZA

DODAJ KOMENTARZ
Więcej Emoticon



Wstecz

Żaden z opisanych na stronie plików nie jest przetrzymywany na serwerze. Administrator strony immortaltorrent.pl nie może ponieść konsekwencji prawnych za to co użytkownicy zamieszczają lub piszą na stronie.
Nie możesz używać tego serwisu do rozpowszechniania lub ściągania materiałów do których nie masz odpowiednich praw lub licencji. Użytkownicy zobowiązani są do przestrzeganie tych zasad.
Rejestracja konta jest jednoznaczna z akceptacją zasad.

2018 © immortaltorrent.pl


Najlepsze strony Torrentowe