Torrentów: 138536      Ranga: Gość               Stwórz konto Odzyskiwanie hasła


Kategorie
Filmy
 ⇒ DivX - XviD
 ⇒ RMVB
 ⇒ DVD-R
 ⇒ TV + Seriale
 ⇒ HDTV-HD
 ⇒ VCD - SVCD
 ⇒ x 264
 ⇒  3D
Gry
 ⇒ Gry PC
 ⇒ Gry Konsole
 ⇒ xbox360
Muzyka
 ⇒ Muzyka
 ⇒ Teledyski/Koncerty
Książki - Komiksy
 ⇒ E-Booki + Audio
 ⇒ Komiksy
Inne
 ⇒ XXX
 ⇒ Dla Dzieci
 ⇒ Sport
 ⇒ Pozostałe - Różne
 ⇒ Manga - Anime
 ⇒ GSM - PDA
Aplikacje
 ⇒ Windows
 ⇒ Linux + Macintosh



Detale torrenta

Bravados-The Bravados (1958)[BRRip 1080p x264 by alE13 AC3/DTS][Lektor i Napisy PL/Eng][Eng]
Kondycja:
Dodane: 02/06/2017
Rozmiar: 7.40 GB
Uploader: alE13

seed(ów): 1
leecher(ów): 0
Pobrane: 0





Ocena: N/A



http://www.imdb.com/title/tt0051433/
http://www.filmweb.pl/film/Bravados-1958-31757

Plik zawiera Sample.

reżyseria: Henry King
scenariusz: Philip Yordan
gatunek: Western
produkcja: USA
premiera: 25-06-1958
muzyka:         Alfred Newman, Hugo Friedhofer
zdjęcia:        Leon Shamroy
czas:           1h 37min

opis:

Jim Douglas has been relentlessly pursuing the four outlaws who murdered his wife, but finds them
in jail about to be hanged. While he waits to witness their execution, they escape; and the townspeople
enlist Douglas' aid to recapture them.

Czterech bandytów zamordowało żonę Jima Douglasa. Douglas wyrusza za nimi w pościg. Kiedy przyjeżdża
do pewnego miasteczka, okazuje się, że wszyscy czterej zostali już pochwyceni i czekają na egzekucję.
Jim postanawia sobie ją obejrzeć. Jednakże w nocy bandyci uciekają. Szeryf prosi Douglasa o pomóc
w ich schwytaniu.

http://i.imgur.com/zMjNNez.jpg
http://i.imgur.com/PMsmguB.jpg
http://i.imgur.com/OFJTyYz.jpg
http://i.imgur.com/0jJKw9F.jpg

obsada:

Gregory Peck, Joan Collins, Henry Silva, Lee Van Cleef

dane techniczne:

The Bravados (1958)-alE13.mkv
Format                      : Matroska
Format version              : Version 4 / Version 2
File size                   : 7.35 GiB
Duration                    : 1 h 37 min
Overall bit rate            : 10.8 Mb/s
Movie name                  : The Bravados (1958)-alE13
Encoded date                : UTC 2017-06-01 17:26:00
Writing application         : mkvmerge v8.1.0 ('Psychedelic Postcard') 64bit
Writing library             : libebml v1.3.1 + libmatroska v1.4.2
Cover                       : Yes
Attachments                 : cover.jpg

Video
ID                          : 1
Format                      : AVC
Format/Info                 : Advanced Video Codec
Format profile              : High@L4.1
Format settings, CABAC      : Yes
Format settings, ReFrames   : 2 frames
Codec ID                    : V_MPEG4/ISO/AVC
Duration                    : 1 h 37 min
Bit rate                    : 9 281 kb/s
Width                       : 1 920 pixels
Height                      : 800 pixels
Display aspect ratio        : 2.40:1
Frame rate mode             : Constant
Frame rate                  : 23.976 (24000/1001) FPS
Color space                 : YUV
Chroma subsampling          : 4:2:0
Bit depth                   : 8 bits
Scan type                   : Progressive
Bits/(Pixel*Frame)          : 0.252
Stream size                 : 6.34 GiB (86%)
Title                       : The Bravados (1958)-alE13
Writing library             : x264 core 142
Default                     : Yes
Forced                      : No
Color range                 : Limited
Color primaries             : BT.709
Transfer characteristics    : BT.709
Matrix coefficients         : BT.709

Audio #1
ID                          : 2
Format                      : AC-3
Format/Info                 : Audio Coding 3
Mode extension              : CM (complete main)
Format settings, Endianness : Big
Codec ID                    : A_AC3
Duration                    : 1 h 37 min
Bit rate mode               : Constant
Bit rate                    : 448 kb/s
Channel(s)                  : 5 channels
Channel positions           : Front: L C R, Side: L R
Sampling rate               : 48.0 kHz
Frame rate                  : 31.250 FPS (1536 spf)
Compression mode            : Lossy
Stream size                 : 313 MiB (4%)
Title                       : The Bravados (1958)-alE13_AC3
Language                    : English
Default                     : No
Forced                      : No

Audio #2
ID                          : 3
Format                      : AC-3
Format/Info                 : Audio Coding 3
Mode extension              : CM (complete main)
Format settings, Endianness : Big
Codec ID                    : A_AC3
Duration                    : 1 h 37 min
Bit rate mode               : Constant
Bit rate                    : 256 kb/s
Channel(s)                  : 2 channels
Channel positions           : Front: L R
Sampling rate               : 44.1 kHz
Frame rate                  : 28.711 FPS (1536 spf)
Compression mode            : Lossy
Delay relative to video     : 972 ms
Stream size                 : 179 MiB (2%)
Title                       : The Bravados (1958)-alE13_AC3
Language                    : Polish
Default                     : Yes
Forced                      : No

Audio #3
ID                          : 6
Format                      : DTS
Format/Info                 : Digital Theater Systems
Mode                        : 16
Format settings, Endianness : Big
Codec ID                    : A_DTS
Duration                    : 1 h 37 min
Bit rate mode               : Constant
Bit rate                    : 768 kb/s
Channel(s)                  : 5 channels
Channel positions           : Front: L C R, Side: L R
Sampling rate               : 48.0 kHz
Frame rate                  : 93.750 FPS (512 spf)
Bit depth                   : 16 bits
Compression mode            : Lossy
Stream size                 : 537 MiB (7%)
Title                       : The Bravados (1958)-alE13_DTS_original
Language                    : English
Default                     : No
Forced                      : No

Text #1
ID                          : 4
Format                      : UTF-8
Codec ID                    : S_TEXT/UTF8
Codec ID/Info               : UTF-8 Plain Text
Duration                    : 1 h 34 min
Bit rate                    : 37 b/s
Count of elements           : 719
Stream size                 : 26.2 KiB (0%)
Title                       : The Bravados (1958)-alE13
Language                    : Polish
Default                     : No
Forced                      : No

Text #2
ID                          : 5
Format                      : UTF-8
Codec ID                    : S_TEXT/UTF8
Codec ID/Info               : UTF-8 Plain Text
Duration                    : 1 h 34 min
Bit rate                    : 39 b/s
Count of elements           : 744
Stream size                 : 27.5 KiB (0%)
Title                       : The Bravados (1958)-alE13
Language                    : English
Default                     : No
Forced                      : No

Menu
00:00:00.000                : :Chapter 01
00:02:19.055                : :Chapter 02
00:09:58.264                : :Chapter 03
00:21:18.027                : :Chapter 04
00:29:35.023                : :Chapter 05
00:39:56.895                : :Chapter 06
00:49:32.636                : :Chapter 07
00:58:30.881                : :Chapter 08
01:04:57.102                : :Chapter 09
01:15:24.352                : :Chapter 10
01:23:33.383                : :Chapter 11
Podobne torrenty
[RMVB] Bravados - The Bravados *1958* [FS.DVDRip.RMVB] [Lektor PL]
[HDTV-HD] Biały Kanion-The Big Country (1958)[BRRip 1080p x264 by alE13 AC3/DTS][Lektor i Napisy PL/Eng][Eng]
[HDTV-HD] Człowiek z Dzikiego Zachodu-Man of the West (1958)[BRRip 1080p x264 by alE13 AC3/DTS][Lektor i Napisy PL][Eng]
[HDTV-HD] Miasto Aniołów-City of Angels (1998)-alE13[BRRip 1080p x264 by alE13 AC3/DTS][Lektor i Napisy PL/Eng][Eng]
[HDTV-HD] Barwy Nocy-Color of night (Director\'s Cut) (1994)-alE13[BRRip 1080p x264 by alE13 AC3][Lektor i Napisy PL/Eng][Eng]
[HDTV-HD] Szybcy i wściekli 8-The Fate of the Furious (2017)-alE13[BRRip 1080p x264 by alE13 AC3/DTS]Napisy PL/Eng][Eng]
[HDTV-HD] Siódma podróż Sindbada-The 7th Voyage of Sinbad (1958)[BDRip 1080p by alE13 AC3/DTS][Lektor i Napisy PL/Eng][Eng]
[HDTV-HD] Bez wyjścia-No Way Out (1987)[BRRip 1080p x264 by alE13 AC3][Lektor i Napisy PL/Eng][Eng]
[HDTV-HD] Coś-The Thing (1982)[BRRip 1080p x264 by alE13 AC3][Lektor i Napisy PL/Eng][Eng]
[HDTV-HD] Gladiator(2000)[BRRip 1080p x264 by alE13 AC3][Lektor i Napisy PL/Eng][Eng]
Szczegóły torrenta
Trackerhttp://tracker.devil-torrents.pl/announce
Multitracker http://tracker.devil-torrents.pl/announce
http://tracker.torrentyorg.pl/announce
udp://tracker.opentrackr.org:1337/announce
udp://tracker.leechers-paradise.org:6969/announce
udp://tracker.ilibr.org:80/announce
udp://tracker.coppersurfer.tk:6969/announce
udp://p4p.arenabg.ch:1337/announce
udp://inferno.demonoid.pw:3391/announce

Kategoria:Filmy » HDTV-HD
Dodane02/06/2017 10:06:39
Ostatnie Uaktualnienie02/06/2017 10:46:41
Pokaż/Ukryj pliki:
16 plików
NIKT JESZCZE NIE DODAŁ KOMENTARZA

DODAJ KOMENTARZ
Więcej Emoticon



Wstecz

Żaden z opisanych na stronie plików nie jest przetrzymywany na serwerze. Administrator strony immortaltorrent.pl nie może ponieść konsekwencji prawnych za to co użytkownicy zamieszczają lub piszą na stronie.
Nie możesz używać tego serwisu do rozpowszechniania lub ściągania materiałów do których nie masz odpowiednich praw lub licencji. Użytkownicy zobowiązani są do przestrzeganie tych zasad.
Rejestracja konta jest jednoznaczna z akceptacją zasad.

2017 © immortaltorrent.pl


Najlepsze strony Torrentowe