Torrentów: 137179      Ranga: Gość               Stwórz konto Odzyskiwanie hasła


Kategorie
Filmy
 ⇒ DivX - XviD
 ⇒ RMVB
 ⇒ DVD-R
 ⇒ TV + Seriale
 ⇒ HDTV-HD
 ⇒ VCD - SVCD
 ⇒ x 264
 ⇒  3D
Gry
 ⇒ Gry PC
 ⇒ Gry Konsole
 ⇒ xbox360
Muzyka
 ⇒ Muzyka
 ⇒ Teledyski/Koncerty
Książki - Komiksy
 ⇒ E-Booki + Audio
 ⇒ Komiksy
Inne
 ⇒ XXX
 ⇒ Dla Dzieci
 ⇒ Sport
 ⇒ Pozostałe - Różne
 ⇒ Manga - Anime
 ⇒ GSM - PDA
Aplikacje
 ⇒ Windows
 ⇒ Linux + Macintosh



Detale torrenta

Inferno (2016)[WEBRRip 1080p x264 by alE13 AC3][Napisy PL][Eng]
Kondycja:
Dodane: 23/12/2016
Rozmiar: 7.90 GB
Uploader: alE13

seed(ów): 0
leecher(ów): 0
Pobrane: 0





Ocena: N/A





http://www.filmweb.pl/film/Inferno-2016-689459
http://www.imdb.com/title/tt3062096/

UWAGA PLIK ZAWIERA SAMPLE.

reżyseria: Ron Howard
scenariusz: David Koepp
gatunek: Thriller
produkcja: Japonia,Turcja,USA,Węgry
premiera: 12-10-2016
muzyka:         Hans Zimmer
zdjęcia:        Salvatore Totino
czas:           2h 1mn

opis:

When Robert Langdon wakes up in an Italian hospital with amnesia, he teams up with Dr. Sienna Brooks,
and together they must race across Europe against the clock to foil a deadly global plot.

Supertrio: Tom Hanks, Ron Howard i Dan Brown przedstawia ekranizację najlepiej sprzedającej
się książki 2013 roku - "Inferno". Światowej sławy profesor w dziedzinie symboliki Robert Langdon
(dwukrotny laureat Oscara Tom Hanks) śladami poematu Dantego usiłuje rozwikłać zagadkę symbolu,
który znajduje w marynarce, kiedy budzi się - pogrążony w amnezji - w jednym z włoskich szpitali.
Będzie to najtrudniejsze zadanie w karierze Langdona, na którego zewsząd czeka niebezpieczeństwo.






obsada:

Tom Hanks, Felicity Jones, Irrfan Khan

dane techniczne:

Inferno (2016)-alE13.mkv
Format                      : Matroska
Format version              : Version 4 / Version 2
File size                   : 7.84 GiB
Duration                    : 2 h 1 min
Overall bit rate            : 9 230 kb/s
Movie name                  : Inferno (2016)-alE13
Encoded date                : UTC 2016-12-23 08:10:14
Writing application         : mkvmerge v8.1.0 ('Psychedelic Postcard') 64bit
Writing library             : libebml v1.3.1 + libmatroska v1.4.2
Cover                       : Yes
Attachments                 : cover.jpg

Video
ID                          : 1
Format                      : AVC
Format/Info                 : Advanced Video Codec
Format profile              : High@L4.1
Format settings, CABAC      : Yes
Format settings, ReFrames   : 2 frames
Format settings, GOP        : M=3, N=24
Codec ID                    : V_MPEG4/ISO/AVC
Duration                    : 2 h 1 min
Bit rate                    : 8 575 kb/s
Width                       : 1 916 pixels
Height                      : 1 036 pixels
Display aspect ratio        : 1.85:1
Frame rate mode             : Constant
Frame rate                  : 24.000 FPS
Color space                 : YUV
Chroma subsampling          : 4:2:0
Bit depth                   : 8 bits
Scan type                   : Progressive
Bits/(Pixel*Frame)          : 0.180
Stream size                 : 7.29 GiB (93%)
Title                       : Inferno (2016)-alE13
Writing library             : x264 core 142
Default                     : Yes
Forced                      : No
Color range                 : Limited
Color primaries             : BT.709
Transfer characteristics    : BT.709
Matrix coefficients         : BT.709

Audio
ID                          : 2
Format                      : AC-3
Format/Info                 : Audio Coding 3
Mode extension              : CM (complete main)
Format settings, Endianness : Big
Codec ID                    : A_AC3
Duration                    : 2 h 1 min
Bit rate mode               : Constant
Bit rate                    : 640 kb/s
Channel(s)                  : 6 channels
Channel positions           : Front: L C R, Side: L R, LFE
Sampling rate               : 48.0 kHz
Frame rate                  : 31.250 FPS (1536 spf)
Bit depth                   : 16 bits
Compression mode            : Lossy
Stream size                 : 556 MiB (7%)
Title                       : Inferno (2016)-alE13_AC3
Language                    : English
Default                     : No
Forced                      : No

Text
ID                          : 3
Format                      : UTF-8
Codec ID                    : S_TEXT/UTF8
Codec ID/Info               : UTF-8 Plain Text
Duration                    : 1 h 55 min
Bit rate                    : 50 b/s
Count of elements           : 1310
Stream size                 : 42.9 KiB (0%)
Title                       : Inferno (2016)-alE13
Default                     : Yes
Forced                      : No

Menu
00:00:00.000                : en:1
00:04:12.544                : en:2
00:12:32.085                : en:3
00:23:42.003                : en:4
00:36:02.160                : en:5
00:51:10.651                : en:6
00:59:15.594                : en:7
01:01:41.906                : en:8
01:07:41.515                : en:9
01:13:24.232                : en:10
01:20:01.254                : en:11
01:24:36.362                : en:12
01:31:24.269                : en:13
01:35:41.109                : en:14
01:40:50.126                : en:15
01:52:26.906                : en:16
Podobne torrenty
[x 264] Inferno (2016)[WEBRRip 1080p x264 by alE13 AC3][Napisy PL][Eng]
[HDTV-HD] Polowanie na mysz-Mousehunt (1997)[WebRRip 1080p x264 by alE13 AC3][Lektor i Napisy PL/Eng][Eng]
[ 3D] Doktor Strange-Doctor Strange (IMAX Edition) 3D (2016)-alE13[BDRip 1080p x264 by alE13 AC3][Dubbing i Napisy PL][Eng]
[HDTV-HD] Ben-Hur(2016)[BRRip 1080p x264 by alE13 AC3/DTS]Napisy PL/England][Eng]
[HDTV-HD] Daylight\'s End (2016)[BRRip 1080p x264 by alE13 AC3][Napisy PL][Eng]
[ 3D] Załoga-Ekipazh 3D (2016)[BDRip 1080p x264 by alE13 AC3][Napisy PL/Eng][Rus]
[ 3D] Przesłuchanie-Interrogation 3D (2016)[BRRip 1080p x264 by alE13 AC3/DTS][Napisy PL/Eng][Eng]
[HDTV-HD] Zaginiony Trop-Skiptrace (2016)[BDRip 1080p x264 by alE13 AC3][Napisy PL/Eng][Eng]
[x 264] Siedmiu wspaniałych-The Magnificent Seven (2016)[WEBRip 1080p x264 by alE13 AC3][Napisy PL/Eng][Eng]
[HDTV-HD] Goście, goście III: Rewolucja-Les Visiteurs-La Revolution (2016)[BRRip 1080p x264 by alE13 AC3/DTS][Napisy PL/Eng/Fre][Fre]
Szczegóły torrenta
Trackerhttp://auratorrent.pl:8089/announce
Multitracker http://auratorrent.pl:8089/announce
http://pow7.com:80/announce
http://pow7.com/announce
http://tracker.tfile.me/announce
http://retracker.omsk.ru:2710/announce
http://mgtracker.org:2710/announce
udp://tracker.leechers-paradise.org:6969/announce
http://mgtracker.org:2710/announce
http://pow7.com:80/announce
http://pow7.com/announce
http://tracker.torrentyorg.pl/announce
udp://inferno.demonoid.ooo:3392/announce
udp://inferno.demonoid.pw:3393/announce
udp://tracker.coppersurfer.tk:6969/announce

Kategoria:Filmy » HDTV-HD
Dodane23/12/2016 09:12:59
Ostatnie Uaktualnienie22/10/2017 17:22:31
Pokaż/Ukryj pliki:
12 plików
NIKT JESZCZE NIE DODAŁ KOMENTARZA

DODAJ KOMENTARZ
Więcej Emoticon



Wstecz

Żaden z opisanych na stronie plików nie jest przetrzymywany na serwerze. Administrator strony immortaltorrent.pl nie może ponieść konsekwencji prawnych za to co użytkownicy zamieszczają lub piszą na stronie.
Nie możesz używać tego serwisu do rozpowszechniania lub ściągania materiałów do których nie masz odpowiednich praw lub licencji. Użytkownicy zobowiązani są do przestrzeganie tych zasad.
Rejestracja konta jest jednoznaczna z akceptacją zasad.

2017 © immortaltorrent.pl


Najlepsze strony Torrentowe