Torrentów: 136472      Ranga: Go¶ć               Stwórz konto Odzyskiwanie hasła


Kategorie
Filmy
 ⇒ DivX - XviD
 ⇒ RMVB
 ⇒ DVD-R
 ⇒ TV + Seriale
 ⇒ HDTV-HD
 ⇒ VCD - SVCD
 ⇒ x 264
 ⇒  3D
Gry
 ⇒ Gry PC
 ⇒ Gry Konsole
 ⇒ xbox360
Muzyka
 ⇒ Muzyka
 ⇒ Teledyski/Koncerty
Ksi±żki - Komiksy
 ⇒ E-Booki + Audio
 ⇒ Komiksy
Inne
 ⇒ XXX
 ⇒ Dla Dzieci
 ⇒ Sport
 ⇒ Pozostałe - Różne
 ⇒ Manga - Anime
 ⇒ GSM - PDA
Aplikacje
 ⇒ Windows
 ⇒ Linux + Macintosh



Detale torrenta

Sissi-Losy Cesarzowej-Sissi-Schicksalsjahre einer Kaiserin (1957)[BRRip 1080p x264 by alE13 AC3/DTS][Lektor i Napisy PL/Eng/Ger][Ger]
Kondycja:
Dodane: 14/05/2017
Rozmiar: 9.35 GB
Uploader: alE13

seed(ów): 1
leecher(ów): 0
Pobrane: 0





Ocena: N/A



http://www.imdb.com/title/tt0050974/
http://www.filmweb.pl/film/Sissi+-+losy+cesarzowej-1957-39557

Audio DTS w osobnym pliku.
Plik zawiera Sample.


reżyseria: Ernst Marischka
scenariusz: Ernst Marischka
gatunek: Kostiumowy,Romans,Dramat historyczny
produkcja: Austria
premiera: 19-12-1957
muzyka:         Anton Profes
zdjęcia:        Bruno Mondi
czas:           1h 48min


opis:

The final film in a highly romanticized trilogy about Elisabeth "Sissi" of Austria finds the young empress traveling throughout Europe.

Sissi podróżuje po Węgrzech w towarzystwie hrabiego Andrassy'ego. Podczas gdy austriacki dwór huczy od plotek o romansie, cesarzowa zapada
na gruĽlicę i jest zmuszona wyjechać do Grecji.

http://i.imgur.com/4ITogWD.jpg
http://i.imgur.com/tKneo9t.jpg
http://i.imgur.com/bberN6j.jpg
http://i.imgur.com/NAbdt1y.jpg

obsada:

Romy Schneider, Karlheinz Böhm, Magda Schneider

dane techniczne:

Sissi - Schicksalsjahre einer Kaiserin (1957)-alE13.mkv
Format                      : Matroska
Format version              : Version 4 / Version 2
File size                   : 7.74 GiB
Duration                    : 1 h 48 min
Overall bit rate            : 10.2 Mb/s
Movie name                  : Sissi - Schicksalsjahre einer Kaiserin (1957)-alE13
Encoded date                : UTC 2017-05-14 06:42:46
Writing application         : mkvmerge v8.1.0 ('Psychedelic Postcard') 64bit
Writing library             : libebml v1.3.1 + libmatroska v1.4.2
Cover                       : Yes
Attachments                 : Cover.jpg

Video
ID                          : 1
Format                      : AVC
Format/Info                 : Advanced Video Codec
Format profile              : High@L4.1
Format settings, CABAC      : Yes
Format settings, ReFrames   : 2 frames
Codec ID                    : V_MPEG4/ISO/AVC
Duration                    : 1 h 48 min
Bit rate                    : 9 546 kb/s
Width                       : 1 440 pixels
Height                      : 1 080 pixels
Display aspect ratio        : 4:3
Frame rate mode             : Constant
Frame rate                  : 23.976 (24000/1001) FPS
Color space                 : YUV
Chroma subsampling          : 4:2:0
Bit depth                   : 8 bits
Scan type                   : Progressive
Bits/(Pixel*Frame)          : 0.256
Stream size                 : 7.25 GiB (94%)
Title                       : Sissi - Schicksalsjahre einer Kaiserin (1957)-alE13
Writing library             : x264 core 142
Default                     : Yes
Forced                      : No
Color range                 : Limited
Color primaries             : BT.709
Transfer characteristics    : BT.709
Matrix coefficients         : BT.709

Audio #1
ID                          : 2
Format                      : AC-3
Format/Info                 : Audio Coding 3
Mode extension              : CM (complete main)
Format settings, Endianness : Big
Codec ID                    : A_AC3
Duration                    : 1 h 48 min
Bit rate mode               : Constant
Bit rate                    : 384 kb/s
Channel(s)                  : 2 channels
Channel positions           : Front: L R
Sampling rate               : 48.0 kHz
Frame rate                  : 31.250 FPS (1536 spf)
Compression mode            : Lossy
Stream size                 : 299 MiB (4%)
Title                       : Sissi - Schicksalsjahre einer Kaiserin (1957)-alE13_AC3
Language                    : German
Default                     : No
Forced                      : No

Audio #2
ID                          : 3
Format                      : AC-3
Format/Info                 : Audio Coding 3
Mode extension              : CM (complete main)
Format settings, Endianness : Big
Codec ID                    : A_AC3
Duration                    : 1 h 48 min
Bit rate mode               : Constant
Bit rate                    : 256 kb/s
Channel(s)                  : 2 channels
Channel positions           : Front: L R
Sampling rate               : 44.1 kHz
Frame rate                  : 28.711 FPS (1536 spf)
Compression mode            : Lossy
Stream size                 : 199 MiB (3%)
Title                       : Sissi - Schicksalsjahre einer Kaiserin (1957)-alE13_AC3
Language                    : Polish
Default                     : Yes
Forced                      : No

Text #1
ID                          : 4
Format                      : UTF-8
Codec ID                    : S_TEXT/UTF8
Codec ID/Info               : UTF-8 Plain Text
Duration                    : 1 h 44 min
Bit rate                    : 60 b/s
Count of elements           : 1030
Stream size                 : 46.0 KiB (0%)
Title                       : Sissi - Schicksalsjahre einer Kaiserin (1957)-alE13
Language                    : Polish
Default                     : No
Forced                      : No

Text #2
ID                          : 5
Format                      : UTF-8
Codec ID                    : S_TEXT/UTF8
Codec ID/Info               : UTF-8 Plain Text
Duration                    : 1 h 44 min
Bit rate                    : 66 b/s
Count of elements           : 1514
Stream size                 : 51.0 KiB (0%)
Title                       : Sissi - Schicksalsjahre einer Kaiserin (1957)-alE13
Language                    : English
Default                     : No
Forced                      : No

Text #3
ID                          : 6
Format                      : UTF-8
Codec ID                    : S_TEXT/UTF8
Codec ID/Info               : UTF-8 Plain Text
Duration                    : 1 h 44 min
Bit rate                    : 70 b/s
Count of elements           : 1104
Stream size                 : 54.1 KiB (0%)
Title                       : Sissi - Schicksalsjahre einer Kaiserin (1957)-alE13
Language                    : German
Default                     : No
Forced                      : No

Menu
00:00:00.000                : en:(01)00:00:00:000
00:09:42.248                : en:(02)00:09:42:248
00:17:14.907                : en:(03)00:17:14:907
00:28:11.481                : en:(04)00:28:11:481
00:33:25.628                : en:(05)00:33:25:628
00:41:42.333                : en:(06)00:41:42:333
00:51:20.494                : en:(07)00:51:20:494
00:58:06.316                : en:(08)00:58:06:316
01:05:56.577                : en:(09)01:05:56:577
01:15:08.921                : en:(10)01:15:08:921
01:25:58.653                : en:(11)01:25:58:653
01:39:33.592                : en:(12)01:39:33:592
Podobne torrenty
[RMVB] Sissi: losy cesarzowej - Sissi: Schicksalsjahre einer Kaiserin *1957* [DVDRip.RMVB] [Lektor PL]
[HDTV-HD] Sissi-Młoda Cesarzowa-Sissi-Die junge Kaiserin (1956)[BRRip 1080p x264 by alE13 AC3/DTS][Lektor i Napisy PL/Eng/Ger][Ger]
[HDTV-HD] Sissi (1955)[BRRip 1080p x264 by alE13 AC3/DTS][Lektor i Napisy PL/Eng/Ger][Ger]
[DivX - XviD] Sissi - Trilogy *1955-1957* [DVDRip] [Napisy PL]
[DivX - XviD] Sissi (1955) [DVDRip] [Lektor PL]
[HDTV-HD] Szybcy i w¶ciekli 8-The Fate of the Furious (2017)-alE13[BRRip 1080p x264 by alE13 AC3/DTS]Napisy PL/Eng][Eng]
[HDTV-HD] Co¶-The Thing (1982)[BRRip 1080p x264 by alE13 AC3][Lektor i Napisy PL/Eng][Eng]
[HDTV-HD] Gladiator(2000)[BRRip 1080p x264 by alE13 AC3][Lektor i Napisy PL/Eng][Eng]
[HDTV-HD] Centurion (2010)[BRRip 1080p x264 by alE13 DTS/AC3][Lektor i Napisy PL/Eng][Eng]
[HDTV-HD] Bez wyj¶cia-No Way Out (1987)[BRRip 1080p x264 by alE13 AC3][Lektor i Napisy PL/Eng][Eng]
Szczegóły torrenta
Trackerhttp://tracker.torrentyorg.pl/announce
Multitracker http://tracker.torrentyorg.pl/announce
udp://tracker.opentrackr.org:1337/announce
udp://tracker.leechers-paradise.org:6969/announce
udp://tracker.ilibr.org:80/announce
udp://tracker.coppersurfer.tk:6969/announce
udp://p4p.arenabg.ch:1337/announce
udp://inferno.demonoid.pw:3391/announce

Kategoria:Filmy » HDTV-HD
Dodane14/05/2017 09:05:58
Ostatnie Uaktualnienie14/05/2017 09:05:58
Pokaż/Ukryj pliki:
16 plików
NIKT JESZCZE NIE DODAŁ KOMENTARZA

DODAJ KOMENTARZ
Więcej Emoticon



Wstecz

Żaden z opisanych na stronie plików nie jest przetrzymywany na serwerze. Administrator strony immortaltorrent.pl nie może ponieść konsekwencji prawnych za to co użytkownicy zamieszczają lub piszą na stronie.
Nie możesz używać tego serwisu do rozpowszechniania lub ściągania materiałów do których nie masz odpowiednich praw lub licencji. Użytkownicy zobowiązani są do przestrzeganie tych zasad.
Rejestracja konta jest jednoznaczna z akceptacją zasad.

2017 © immortaltorrent.pl


Najlepsze strony Torrentowe