Torrentów: 134891      Ranga: Go¶ć               Stwórz konto Odzyskiwanie hasła


Kategorie
Filmy
 ⇒ DivX - XviD
 ⇒ RMVB
 ⇒ DVD-R
 ⇒ TV + Seriale
 ⇒ HDTV-HD
 ⇒ VCD - SVCD
 ⇒ x 264
 ⇒  3D
Gry
 ⇒ Gry PC
 ⇒ Gry Konsole
 ⇒ xbox360
Muzyka
 ⇒ Muzyka
 ⇒ Teledyski/Koncerty
Ksi±żki - Komiksy
 ⇒ E-Booki + Audio
 ⇒ Komiksy
Inne
 ⇒ XXX
 ⇒ Dla Dzieci
 ⇒ Sport
 ⇒ Pozostałe - Różne
 ⇒ Manga - Anime
 ⇒ GSM - PDA
Aplikacje
 ⇒ Windows
 ⇒ Linux + Macintosh



Detale torrenta

Huzar na dachu-Le hussard sur le toit (1995)[BRRip 1080p x264 by alE13 AC3/DTS][Napisy PL/Eng][Fre]
Kondycja:
Dodane: 20/12/2016
Rozmiar: 7.93 GB
Uploader: alE13

seed(ów): 0
leecher(ów): 0
Pobrane: 0





Ocena: N/A



http://www.imdb.com/title/tt0113362/
http://www.filmweb.pl/film/Huzar-1995-6268

Plik zawiera sample.

reżyseria: Jean-Paul Rappeneau
scenariusz: Jean-Claude Carrière,Jean-Paul Rappeneau,Nina Companéez
gatunek: Kostiumowy,Melodramat
produkcja: Francja
premiera:       20-08-1995
czas:           2h 9mn

opis:

In a time of war and disease, a young officer gallantly tries to help a young woman find her husband.

W czasie wojny i epidemii cholery młody pułkownik próbuje pomóc pięknej arystokratce odnaleĽć męża.

http://i.imgur.com/s7BRMek.jpg
http://i.imgur.com/PrSqcx9.jpg
http://i.imgur.com/v3hUAGI.jpg
http://i.imgur.com/Zr02I8E.jpg

obsada:

Olivier Martinez, Juliette Binoche, Pierre Arditi

dane techniczne:

Le hussard sur le toit (1995)-alE13.mkv
Format                      : Matroska
Format version              : Version 4 / Version 2
File size                   : 7.87 GiB
Duration                    : 2 h 9 min
Overall bit rate            : 8 713 kb/s
Movie name                  : Le hussard sur le toit (1995)-alE13
Encoded date                : UTC 2016-12-20 03:48:45
Writing application         : mkvmerge v8.1.0 ('Psychedelic Postcard') 64bit
Writing library             : libebml v1.3.1 + libmatroska v1.4.2
Cover                       : Yes
Attachments                 : cover.jpg

Video
ID                          : 1
Format                      : AVC
Format/Info                 : Advanced Video Codec
Format profile              : High@L4.1
Format settings, CABAC      : Yes
Format settings, ReFrames   : 2 frames
Codec ID                    : V_MPEG4/ISO/AVC
Duration                    : 2 h 9 min
Bit rate                    : 6 499 kb/s
Width                       : 1 920 pixels
Height                      : 816 pixels
Display aspect ratio        : 2.35:1
Frame rate mode             : Constant
Frame rate                  : 23.976 (24000/1001) FPS
Color space                 : YUV
Chroma subsampling          : 4:2:0
Bit depth                   : 8 bits
Scan type                   : Progressive
Bits/(Pixel*Frame)          : 0.173
Stream size                 : 5.87 GiB (75%)
Title                       : Le hussard sur le toit (1995)-alE13
Writing library             : x264 core 142
Default                     : Yes
Forced                      : No
Color range                 : Limited
Color primaries             : BT.709
Transfer characteristics    : BT.709
Matrix coefficients         : BT.709

Audio #1
ID                          : 2
Format                      : AC-3
Format/Info                 : Audio Coding 3
Mode extension              : CM (complete main)
Format settings, Endianness : Big
Codec ID                    : A_AC3
Duration                    : 2 h 9 min
Bit rate mode               : Constant
Bit rate                    : 448 kb/s
Channel(s)                  : 6 channels
Channel positions           : Front: L C R, Side: L R, LFE
Sampling rate               : 48.0 kHz
Frame rate                  : 31.250 FPS (1536 spf)
Bit depth                   : 16 bits
Compression mode            : Lossy
Stream size                 : 414 MiB (5%)
Title                       : Le hussard sur le toit (1995)-alE13-AC3
Language                    : French
Default                     : No
Forced                      : No

Audio #2
ID                          : 3
Format                      : AC-3
Format/Info                 : Audio Coding 3
Mode extension              : CM (complete main)
Format settings, Endianness : Big
Codec ID                    : A_AC3
Duration                    : 2 h 8 min
Bit rate mode               : Constant
Bit rate                    : 256 kb/s
Channel(s)                  : 2 channels
Channel positions           : Front: L R
Sampling rate               : 48.0 kHz
Frame rate                  : 31.250 FPS (1536 spf)
Bit depth                   : 16 bits
Compression mode            : Lossy
Delay relative to video     : 15 s 100 ms
Stream size                 : 236 MiB (3%)
Title                       : Le hussard sur le toit (1995)-alE13-AC3
Language                    : Polish
Default                     : Yes
Forced                      : No

Audio #3
ID                          : 4
Format                      : DTS
Format/Info                 : Digital Theater Systems
Mode                        : 16
Format settings, Endianness : Big
Codec ID                    : A_DTS
Duration                    : 2 h 9 min
Bit rate mode               : Constant
Bit rate                    : 1 509 kb/s
Channel(s)                  : 6 channels
Channel positions           : Front: L C R, Side: L R, LFE
Sampling rate               : 48.0 kHz
Frame rate                  : 93.750 FPS (512 spf)
Bit depth                   : 16 bits
Compression mode            : Lossy
Stream size                 : 1.36 GiB (17%)
Title                       : Le hussard sur le toit (1995)-alE13_DTS
Language                    : French
Default                     : No
Forced                      : No

Text #1
ID                          : 5
Format                      : UTF-8
Codec ID                    : S_TEXT/UTF8
Codec ID/Info               : UTF-8 Plain Text
Duration                    : 2 h 4 min
Bit rate                    : 34 b/s
Count of elements           : 970
Stream size                 : 31.6 KiB (0%)
Title                       : Le hussard sur le toit (1995)-alE13
Language                    : English
Default                     : No
Forced                      : No

Text #2
ID                          : 6
Format                      : UTF-8
Codec ID                    : S_TEXT/UTF8
Codec ID/Info               : UTF-8 Plain Text
Duration                    : 2 h 4 min
Bit rate                    : 35 b/s
Count of elements           : 958
Stream size                 : 32.1 KiB (0%)
Title                       : Le hussard sur le toit (1995)-alE13
Language                    : Polish
Default                     : Yes
Forced                      : No

Menu
00:00:00.000                : en:Chapter 01
00:05:20.153                : en:Chapter 02
00:07:06.549                : en:Chapter 03
00:12:59.194                : en:Chapter 04
00:21:55.605                : en:Chapter 05
00:24:16.078                : en:Chapter 06
00:29:33.354                : en:Chapter 07
00:35:08.898                : en:Chapter 08
00:39:45.297                : en:Chapter 09
00:48:32.242                : en:Chapter 10
00:55:26.905                : en:Chapter 11
01:01:41.322                : en:Chapter 12
01:03:30.472                : en:Chapter 13
01:07:06.856                : en:Chapter 14
01:11:37.835                : en:Chapter 15
01:14:25.792                : en:Chapter 16
01:16:26.331                : en:Chapter 17
01:19:12.287                : en:Chapter 18
01:26:27.390                : en:Chapter 19
01:29:34.202                : en:Chapter 20
01:31:57.886                : en:Chapter 21
01:41:09.520                : en:Chapter 22
01:44:39.523                : en:Chapter 23
01:58:46.993                : en:Chapter 24
02:02:34.095                : en:Chapter 25
Podobne torrenty
[HDTV-HD] Szybcy i w¶ciekli 8-The Fate of the Furious (2017)-alE13[BRRip 1080p x264 by alE13 AC3/DTS]Napisy PL/Eng][Eng]
[HDTV-HD] Bez odwrotu-No Way Back (1995)[BRRip 1080p by alE13 AC3][Lektor PL/Napisy Eng][Eng]
[HDTV-HD] W Potrzasku-The Hunted (1995)[BDRip 1080p x264 by alE13 AC3/DTS][Lektor i Napisy PL/Eng][Eng]
[HDTV-HD] Tajemnica Syriusza-Screamers (1995)[WEBRip 1080p x264 by alE13 AC3][Lektor i Napisy PL/Eng][Eng]
[HDTV-HD] Ben-Hur(2016)[BRRip 1080p x264 by alE13 AC3/DTS]Napisy PL/England][Eng]
[HDTV-HD] The Hike (2011)[BRRip 1080p x264 by alE13 AC3/DTS][Napisy PL/Ger][Eng]
[HDTV-HD] Popeye (1980)[BRRip 1080p x264 by alE13 AC3][Napisy PL/Eng][Eng]
[HDTV-HD] Aftermath (2017)[BRRip 1080p x264 by alE13 AC3][Napisy PL/Eng][Eng]
[HDTV-HD] Grandview, U.S.A. (1984)[BRRip 1080p x264 by alE13 AC3/DTS][Napisy PL/Eng][Eng]
[HDTV-HD] Daylight\'s End (2016)[BRRip 1080p x264 by alE13 AC3][Napisy PL][Eng]
Szczegóły torrenta
Trackerhttp://auratorrent.pl:8089/announce
Multitracker http://auratorrent.pl:8089/announce
http://pow7.com:80/announce
http://pow7.com/announce
http://tracker.tfile.me/announce
udp://tracker.vanitycore.co:6969/announce
http://tracker.vanitycore.co:6969/announce
http://retracker.omsk.ru:2710/announce
http://mgtracker.org:2710/announce
udp://tracker.leechers-paradise.org:6969/announce
http://mgtracker.org:2710/announce
http://pow7.com:80/announce
http://pow7.com/announce
http://tracker.torrentyorg.pl/announce
udp://inferno.demonoid.ooo:3392/announce
udp://inferno.demonoid.pw:3393/announce
udp://tracker.coppersurfer.tk:6969/announce

Kategoria:Filmy » HDTV-HD
Dodane20/12/2016 05:12:30
Ostatnie Uaktualnienie22/07/2017 14:54:18
Pokaż/Ukryj pliki:
15 plików
NIKT JESZCZE NIE DODAŁ KOMENTARZA

DODAJ KOMENTARZ
Więcej Emoticon



Wstecz

Żaden z opisanych na stronie plików nie jest przetrzymywany na serwerze. Administrator strony immortaltorrent.pl nie może ponieść konsekwencji prawnych za to co użytkownicy zamieszczają lub piszą na stronie.
Nie możesz używać tego serwisu do rozpowszechniania lub ściągania materiałów do których nie masz odpowiednich praw lub licencji. Użytkownicy zobowiązani są do przestrzeganie tych zasad.
Rejestracja konta jest jednoznaczna z akceptacją zasad.

2017 © immortaltorrent.pl


Najlepsze strony Torrentowe