Torrentów: 134918      Ranga: Gość               Stwórz konto Odzyskiwanie hasła


Kategorie
Filmy
 ⇒ DivX - XviD
 ⇒ RMVB
 ⇒ DVD-R
 ⇒ TV + Seriale
 ⇒ HDTV-HD
 ⇒ VCD - SVCD
 ⇒ x 264
 ⇒  3D
Gry
 ⇒ Gry PC
 ⇒ Gry Konsole
 ⇒ xbox360
Muzyka
 ⇒ Muzyka
 ⇒ Teledyski/Koncerty
Książki - Komiksy
 ⇒ E-Booki + Audio
 ⇒ Komiksy
Inne
 ⇒ XXX
 ⇒ Dla Dzieci
 ⇒ Sport
 ⇒ Pozostałe - Różne
 ⇒ Manga - Anime
 ⇒ GSM - PDA
Aplikacje
 ⇒ Windows
 ⇒ Linux + Macintosh



Detale torrenta

Szybcy i wściekli 8-The Fate of the Furious (2017)-alE13[BRRip 1080p x264 by alE13 AC3/DTS]Napisy PL/Eng][Eng]
Kondycja:
Dodane: 02/07/2017
Rozmiar: 9.54 GB
Uploader: alE13

seed(ów): 1
leecher(ów): 0
Pobrane: 0





Ocena: N/A



http://www.imdb.com/title/tt4630562/
http://www.filmweb.pl/film/Szybcy+i+w%C5%9Bciekli+8-2017-741981

Audio DTS w osobnym pliku.
Plik zawiera Sample.


reżyseria: F. Gary Gray
scenariusz: Chris Morgan
gatunek: Akcja
produkcja: Francja,Japonia,Kanada,USA,Wielka Brytania,Samoa
premiera: 04-04-2017
muzyka:         Brian Tyler
zdjęcia:        Stephen F. Windon
czas:           02:15:57

opis:

When a mysterious woman seduces Dom into the world of terrorism and a betrayal of those closest to him, the crew
face trials that will test them as never before.

Szczęśliwy miesiąc miodowy Dominica i Letty przerywa pojawienie się tajemniczej kobiety, która ponownie wciąga
mężczyznę w świat zbrodni.

http://i.imgur.com/b27LZj9.jpg
http://i.imgur.com/019c1cA.jpg
http://i.imgur.com/BippgRb.jpg
http://i.imgur.com/dY2uvzs.jpg

obsada:

Vin Diesel, Jason Statham, Dwayne Johnson, Kurt Russell, Scott Eastwood

dane techniczne:

Plik: The Fate of the Furious (2017)-alE13.mka

Hash: 5C49FB5589923541
Format: Matroska
Czas: 02:15:57.366
Rozmiar: 1.43 GiB (1540158617)

Audio (0):
Kodek:         (DTS) DTS
Format:       DTS
Kanały:       6 channels
BitRate:       1 509 kb/s
Tytuł:         The Fate of the Furious (2017)-alE13_DTS
Język:       English

The Fate of the Furious (2017)-alE13.mkv
Format                      : Matroska
Format version              : Version 4 / Version 2
File size                   : 8.06 GiB
Duration                    : 2 h 15 min
Overall bit rate            : 8 484 kb/s
Movie name                  : The Fate of the Furious (2017)-alE13_DTS
Encoded date                : UTC 2017-07-02 01:34:23
Writing application         : mkvmerge v8.1.0 ('Psychedelic Postcard') 64bit
Writing library             : libebml v1.3.1 + libmatroska v1.4.2
Cover                       : Yes
Attachments                 : Cover.jpg

Video
ID                          : 1
Format                      : AVC
Format/Info                 : Advanced Video Codec
Format profile              : High@L4.1
Format settings, CABAC      : Yes
Format settings, ReFrames   : 2 frames
Codec ID                    : V_MPEG4/ISO/AVC
Duration                    : 2 h 15 min
Bit rate                    : 8 032 kb/s
Width                       : 1 920 pixels
Height                      : 804 pixels
Display aspect ratio        : 2.40:1
Frame rate mode             : Constant
Frame rate                  : 23.976 (24000/1001) FPS
Color space                 : YUV
Chroma subsampling          : 4:2:0
Bit depth                   : 8 bits
Scan type                   : Progressive
Bits/(Pixel*Frame)          : 0.217
Stream size                 : 7.63 GiB (95%)
Title                       : The Fate of the Furious (2017)-alE13
Writing library             : x264 core 142
Default                     : Yes
Forced                      : No
Color range                 : Limited
Color primaries             : BT.709
Transfer characteristics    : BT.709
Matrix coefficients         : BT.709

Audio
ID                          : 2
Format                      : AC-3
Format/Info                 : Audio Coding 3
Mode extension              : CM (complete main)
Format settings, Endianness : Big
Codec ID                    : A_AC3
Duration                    : 2 h 15 min
Bit rate mode               : Constant
Bit rate                    : 448 kb/s
Channel(s)                  : 6 channels
Channel positions           : Front: L C R, Side: L R, LFE
Sampling rate               : 48.0 kHz
Frame rate                  : 31.250 FPS (1536 spf)
Compression mode            : Lossy
Stream size                 : 436 MiB (5%)
Title                       : The Fate of the Furious (2017)-alE13_AC3
Language                    : English
Default                     : No
Forced                      : No

Text #1
ID                          : 3
Format                      : UTF-8
Codec ID                    : S_TEXT/UTF8
Codec ID/Info               : UTF-8 Plain Text
Duration                    : 2 h 5 min
Bit rate                    : 50 b/s
Count of elements           : 1479
Stream size                 : 46.6 KiB (0%)
Title                       : The Fate of the Furious (2017)-alE13
Language                    : Polish
Default                     : Yes
Forced                      : No

Text #2
ID                          : 4
Format                      : UTF-8
Codec ID                    : S_TEXT/UTF8
Codec ID/Info               : UTF-8 Plain Text
Duration                    : 2 h 3 min
Bit rate                    : 52 b/s
Count of elements           : 1516
Stream size                 : 47.2 KiB (0%)
Title                       : The Fate of the Furious (2017)-alE13_Full
Language                    : English
Default                     : No
Forced                      : No

Text #3
ID                          : 5
Format                      : UTF-8
Codec ID                    : S_TEXT/UTF8
Codec ID/Info               : UTF-8 Plain Text
Duration                    : 2 h 4 min
Bit rate                    : 59 b/s
Count of elements           : 1841
Stream size                 : 54.0 KiB (0%)
Title                       : The Fate of the Furious (2017)-alE13_SDH
Language                    : English
Default                     : No
Forced                      : No

Menu
00:00:00.000                : en:00:00:00.000
00:13:08.913                : en:00:13:08.913
00:20:30.771                : en:00:20:30.771
00:26:38.639                : en:00:26:38.639
00:32:26.778                : en:00:32:26.778
00:36:40.573                : en:00:36:40.573
00:43:35.612                : en:00:43:35.613
00:47:45.780                : en:00:47:45.780
00:56:00.732                : en:00:56:00.732
01:04:08.303                : en:01:04:08.303
01:09:08.061                : en:01:09:08.061
01:13:24.274                : en:01:13:24.275
01:21:25.714                : en:01:21:25.714
01:29:29.948                : en:01:29:29.948
01:35:12.457                : en:01:35:12.457
01:39:55.781                : en:01:39:55.781
01:45:00.711                : en:01:45:00.711
01:53:01.858                : en:01:53:01.858
02:01:51.262                : en:02:01:51.262
02:06:45.097                : en:02:06:45.097
Podobne torrenty
[DivX - XviD] Szybcy i wściekli 8 - The Fate of the Furious *2017* [TC.] [XViD-MORS] [NAPISY PL] [zibi6248]
[DivX - XviD] Szybcy i Wściekli 8 - The Fate of the Furious *2017* [480p] [WEB-DL] [XviD.AC3-LPT] [POLSKIE NAPISY] [zibi6248]
[HDTV-HD] Aftermath (2017)[BRRip 1080p x264 by alE13 AC3][Napisy PL/Eng][Eng]
[HDTV-HD] John Wick 2 (2017)[BRRip 1080p x264 by alE13 AC3/TrueHD][Napisy PL/Eng][Eng]
[HDTV-HD] Kung Fu Yoga-Gong fu yu jia (2017)[BRRip 1080p x264 by alE13 AC3/DTS][Napisy PL/Eng][Chinese]
[HDTV-HD] Czarny Motyl-Black Butterfly (2017)[BRRip 1080p x264 by alE13 AC3/DTS][Napisy PL/Eng/Fre][Eng/Fre]
[HDTV-HD] Resident Evil: Vendetta (2017)[BRRip 1080p x264 by alE13 AC3/DTS][Lektor i Napisy PL/Eng][Eng]
[ 3D] xXx: Reaktywacja-xXx: Return of Xander Cage 3D (2017)[BRRip 1080p x264 by alE13 AC3/DTS][Lektor i Napisy PL/Eng][Eng]
[ 3D] Piękna i Bestia-Beauty & The Beast 3D (2017)[BRRip 1080p x264 by alE13 AC3/DTS][Dubbing i Napisy Eng][Eng]
[HDTV-HD] Bałkańska Vendetta-Kill\'em All (2017)[BRRip 1080p x264 by alE13 AC3/DTS][Lektor i Napisy PL & Multi][Eng]
Szczegóły torrenta
Trackerhttp://tracker.devil-torrents.pl/announce
Multitracker http://tracker.devil-torrents.pl/announce
http://tracker.torrentyorg.pl/announce
udp://tracker.opentrackr.org:1337/announce
udp://tracker.leechers-paradise.org:6969/announce
udp://tracker.ilibr.org:80/announce
udp://tracker.coppersurfer.tk:6969/announce
udp://p4p.arenabg.ch:1337/announce
udp://inferno.demonoid.pw:3391/announce

Kategoria:Filmy » HDTV-HD
Dodane02/07/2017 04:07:00
Ostatnie Uaktualnienie02/07/2017 04:14:00
Pokaż/Ukryj pliki:
14 plików
NIKT JESZCZE NIE DODAŁ KOMENTARZA

DODAJ KOMENTARZ
Więcej Emoticon



Wstecz

Żaden z opisanych na stronie plików nie jest przetrzymywany na serwerze. Administrator strony immortaltorrent.pl nie może ponieść konsekwencji prawnych za to co użytkownicy zamieszczają lub piszą na stronie.
Nie możesz używać tego serwisu do rozpowszechniania lub ściągania materiałów do których nie masz odpowiednich praw lub licencji. Użytkownicy zobowiązani są do przestrzeganie tych zasad.
Rejestracja konta jest jednoznaczna z akceptacją zasad.

2017 © immortaltorrent.pl


Najlepsze strony Torrentowe