Torrentów: 137858      Ranga: Go¶ć               Stwórz konto Odzyskiwanie hasła


Kategorie
Filmy
 ⇒ DivX - XviD
 ⇒ RMVB
 ⇒ DVD-R
 ⇒ TV + Seriale
 ⇒ HDTV-HD
 ⇒ VCD - SVCD
 ⇒ x 264
 ⇒  3D
Gry
 ⇒ Gry PC
 ⇒ Gry Konsole
 ⇒ xbox360
Muzyka
 ⇒ Muzyka
 ⇒ Teledyski/Koncerty
Ksi±żki - Komiksy
 ⇒ E-Booki + Audio
 ⇒ Komiksy
Inne
 ⇒ XXX
 ⇒ Dla Dzieci
 ⇒ Sport
 ⇒ Pozostałe - Różne
 ⇒ Manga - Anime
 ⇒ GSM - PDA
Aplikacje
 ⇒ Windows
 ⇒ Linux + Macintosh



Detale torrenta

Fantastyczna Czwórka - Fantastic Four 2015 [HDTS XVID AC3 HQ Hive-CM8] [ENG]
Kondycja:
Dodane: 27/08/2015
Rozmiar: 1.35 GB
Uploader: Anonimowy

seed(ów): 2095
leecher(ów): 774
Pobrane: 9519





Ocena: N/A

Tytuł............................................
: Fantastic Four / Fantastyczna Czwórka

Ocena.............................................
: IMDB - 4/10 (17193), Filmweb - 4.9/10 (252)

Produkcja.........................................
: USA

Gatunek...........................................
: Akcja, Sci-Fi

Czas trwania......................................
: 106 min.

Premiera..........................................
: 14.08.2015 - Polska, 18.06.2015 - ¦wiat

Reżyseria........................................
: Josh Trank

Scenariusz........................................
: Josh Trank, Simon Kinberg, Jeremy Slater

Aktorzy...........................................
: Miles Teller, Michael B. Jordan, Kate Mara, Jamie Bell, Toby Kebbell

OPIS: Podczas nieudanego eksperymentu czterech naukowców zyskuje nadludzkie umiejętno¶ci. Wykorzystuj± je, aby ocalić ¶wiat przed okrutnym tyranem


General
Complete name: Fantastic.Four.2015.HDTS.XVID.AC3.HQ.Hive-CM8.avi
Format: AVI
Format/Info: Audio Video Interleave
File size: 1.33 GiB
Duration: 1h 32mn
Overall bit rate: 2 063 Kbps
Writing application: Nandub v1.0rc2
Writing library: Nandub build 1853/release

Video
ID: 0
Format: MPEG-4 Visual
Format profile: Advanced Simple@L5
Format settings, BVOP: 2
Format settings, QPel: Yes
Format settings, GMC: No warppoints
Format settings, Matrix: Default (H.263)
Muxing mode: Packed bitstream
Codec ID: XVID
Codec ID/Hint: XviD
Duration: 1h 32mn
Bit rate: 1 795 Kbps
Width: 720 pixels
Height: 288 pixels
Display aspect ratio: 2.500
Frame rate: 29.970 fps
Color space: YUV
Chroma subsampling: 4:2:0
Bit depth: 8 bits
Scan type: Progressive
Compression mode: Lossy
Bits/(Pixel*Frame): 0.289
Stream size: 1.16 GiB (87%)
Writing library: XviD 1.2.1 (UTC 2008-12-04)

Audio
ID: 1
Format: AC-3
Format/Info: Audio Coding 3
Mode extension: CM (complete main)
Format settings, Endianness: Big
Codec ID: 2000
Duration: 1h 32mn
Bit rate mode: Constant
Bit rate: 256 Kbps
Channel(s): 2 channels
Channel positions: Front: L R
Sampling rate: 48.0 KHz
Bit depth: 16 bits
Compression mode: Lossy
Stream size: 169 MiB (12%)
Alignment: Split accross interleaves
Interleave, duration: 33 ms (1.00 video frame)
Interleave, preload duration: 500 ms
Podobne torrenty
[DivX - XviD] Fantastyczna Czwórka - Fantastic Four *2005* [DVDRip.XViD] [dub PL]
[DivX - XviD] Fantastyczna Czwórka 1-2 - Fantastic Four 1-2 *2005-2007* [DVDRip.XviD][Napisy PL]
[DivX - XviD] Fantastyczna Czwórka 2: Narodziny Srebrnego Surfera - Fantastic Four Rise Of The Silver Surfer 2007 [BRRip.XviD]
[DivX - XviD] Fantastyczna Czwórka 2: Narodziny Srebrnego Surfera - Fantastic Four: Rise of the Silver Surfer *2007* [DVDRip.XviD] [Lektor PL]
[DivX - XviD] Fantastyczna Czwórka 2: Narodziny Srebrnego Surfera - Fantastic Four: Rise of the Silver Surfer *2007*
[DVD-R] Fantastyczna Czwórka 2: Narodziny Srebrnego Surfera - Fantastic Four: Rise Of The Silver Surfer *2007* [PAL] [DVD5] [.iso] [Napisy i Lektor PL]
[DivX - XviD] Fantastyczna CzwĂłrka / The Fantastic Four (2015) [BDRip] [Xvid-KiT] [Lektor PL]
[DivX - XviD] Fantastyczna Podróż - Fantastic Voyage *1966* [DVDRip.XviD-ZoZo][ENG]
[DivX - XviD] Fantastyczna Podróż - Fantastic Voyage *1966* [DVDRip.XviD] [Napisy PL]
[DivX - XviD] Mission Impossible 5-Rogue Nation Mission Impossible - Rogue Nation 2015 [HDTS] [XVID] [AC3 HQ Hive-CM8] [ENG]
Szczegóły torrenta
Trackerudp://open.demonii.com:1337/announce
Multitracker udp://open.demonii.com:1337/announce
udp://tracker.publicbt.com:80/announce
udp://tracker.openbittorrent.com:80/announce
udp://tracker.istole.it:80/announce
http://tracker.pubt.net:2710/announce
http://tracker.aletorrenty.pl:2710/announce
udp://tracker4.piratux.com:6969/announce
udp://tracker.opentrackr.org:1337/announce
udp://glotorrents.pw:6969/announce
udp://p4p.arenabg.ch:1337/announce

Kategoria:Filmy » DivX - XviD
Dodane27/08/2015 15:08:09
Ostatnie Uaktualnienie27/08/2015 15:54:09
Pokaż/Ukryj pliki:
4 plików
NIKT JESZCZE NIE DODAŁ KOMENTARZA

DODAJ KOMENTARZ
Więcej Emoticon



Wstecz

Żaden z opisanych na stronie plików nie jest przetrzymywany na serwerze. Administrator strony immortaltorrent.pl nie może ponieść konsekwencji prawnych za to co użytkownicy zamieszczają lub piszą na stronie.
Nie możesz używać tego serwisu do rozpowszechniania lub ściągania materiałów do których nie masz odpowiednich praw lub licencji. Użytkownicy zobowiązani są do przestrzeganie tych zasad.
Rejestracja konta jest jednoznaczna z akceptacją zasad.

2017 © immortaltorrent.pl


Najlepsze strony Torrentowe