Torrentów: 142052      Ranga: Gosc               Stwórz konto Odzyskiwanie hasła


Kategorie
Filmy
 ⇒ DivX - XviD
 ⇒ RMVB
 ⇒ DVD-R
 ⇒ TV + Seriale
 ⇒ HDTV-HD
 ⇒ VCD - SVCD
 ⇒ x 264
 ⇒  3D
Gry
 ⇒ Gry PC
 ⇒ Gry Konsole
 ⇒ xbox360
Muzyka
 ⇒ Muzyka
 ⇒ Teledyski/Koncerty
Książki - Komiksy
 ⇒ E-Booki + Audio
 ⇒ Komiksy
Inne
 ⇒ XXX
 ⇒ Dla Dzieci
 ⇒ Sport
 ⇒ Pozostałe - Różne
 ⇒ Manga - Anime
 ⇒ GSM - PDA
Aplikacje
 ⇒ Windows
 ⇒ Linux + Macintosh



Detale torrenta

Czas na milosc - About Time (2013) [BDRip] [XviD-torentup] [Lektor PL]
Kondycja:
Dodane: 09/06/2016
Rozmiar: 700.31 MB
Uploader: torentup

seed(ów): 5
leecher(ów): 18
Pobrane: 4





Ocena: N/A

=====================
INFO
================

produkcja: Wielka Brytania
premiera: 20 wrzenia 2013 (Polska) 27 czerwca 2013 (wiat)
reyseria: Richard Curtis
scenariusz: Richard Curtis
gatunek: Dramat, Komedia, Romans, Sci-Fi

http://www.filmweb.pl/film/Czas+na+mi%C5%82o%C5%9B%C4%87-2013-644432
http://www.imdb.com/title/tt2194499/


=====================
OPIS
====================

Koczc 21 lat Tim Lake (Domhnall Gleeson) odkrywa, e moe podrowa w czasie. Po kolejnym nudnym przyjciu noworocznym ojciec Tima opowiada rodzinn histori, e mczyni potrafi przemieszcza si w czasie. Tim moe zmieni co si stanie lub co si ju stao do tej pory w jego yciu. Postanawia uczyni wiat lepszym, znajdujc sobie dziewczyn. Niestety, nie jest to takie atwe. Tim podrujc z Kornwalii do Londynu poznaje liczn Mary (Rachel McAdams). Zakochuj si w sobie, ale w zwizku z przemieszaniem si w czasie okazuje si, e wcale jej nie pozna. Przy kolejnej podry w czasie znowu j poznaje i znowu si zakochuj, sytuacja powtarza si wielokrotnie aby w kocu zdoby serce dziewczyny. Tim wykorzystuje swoj zdolno do zorganizowania romantycznych owiadczyn, ratuje swj lub od fatalnych przemw. Jego dar pomaga przyjacielowi dotrze na czas do szpitala, gdy rodzi si crka. Odkrywa, e ten dar pomaga, ale moe by te niebezpieczny. To komedia o mioci i o czasie, ktry upywajc szczliwie udowadnia, e moe nie potrzeba wcale podry w czasie.  Rekruci stocz walk z najbardziej wrogimi stworami! Bd musieli zmierzy si ze strzelajcym kwasem Corroderem, niebezpiecznym Rotorem i szalonym snajperem Xplodem. Zobacz swoich Bohaterw w akcji!

=====================
OBSADA
====================

Domhnall Gleeson...Tim
Rachel McAdams...Mary
Bill Nighy...Tata
Lydia Wilson...Kit Kat
Lindsay Duncan...Mama
Richard Cordery...Wujek D
Joshua McGuire...Rory
Tom Hollander...Harry

=====================
DANE TECHNICZNE
=====================

Format                         : AVI
Format/Info                    : Audio Video Interleave
File size                      : 700 MiB
Duration                       : 2h 3mn
Overall bit rate               : 793 Kbps
Writing application            : VirtualDubMod 1.5.10.2 (build 2542/release)
Writing library                : VirtualDubMod build 2542/release

Video
ID                             : 0
Format                         : MPEG-4 Visual
Format profile                 : Advanced Simple@L5
Format settings, BVOP          : 2
Format settings, QPel          : No
Format settings, GMC           : No warppoints
Format settings, Matrix        : Default (H.263)
Codec ID                       : XVID
Codec ID/Hint                  : XviD
Duration                       : 2h 3mn
Bit rate                       : 672 Kbps
Width                          : 608 pixels
Height                         : 256 pixels
Display aspect ratio           : 2.40:1
Frame rate                     : 23.976 fps
Color space                    : YUV
Chroma subsampling             : 4:2:0
Bit depth                      : 8 bits
Scan type                      : Progressive
Compression mode               : Lossy
Bits/(Pixel*Frame)             : 0.180
Stream size                    : 593 MiB (85%)
Writing library                : XviD 1.2.1 (UTC 2008-12-04)

Audio
ID                             : 1
Format                         : MPEG Audio
Format version                 : Version 1
Format profile                 : Layer 3
Mode                           : Joint stereo
Codec ID                       : 55
Codec ID/Hint                  : MP3
Duration                       : 2h 3mn
Bit rate mode                  : Constant
Bit rate                       : 112 Kbps
Channel(s)                     : 2 channels
Sampling rate                  : 44.1 KHz
Compression mode               : Lossy
Stream size                    : 98.8 MiB (14%)
Alignment                      : Split accross interleaves
Interleave, duration           : 42 ms (1.00 video frame)
Interleave, preload duration   : 500 ms

Podobne torrenty
[DivX - XviD] Czas na mio - About Time *2013* [BRRip] [XviD] [Lektor PL]
[DivX - XviD] Czas na mio - About Time (2013) [BRRip.XviD-KiT] [Lektor PL]
[DVD-R] Czas na mio / About Time (2013) [PAL] [DVD5] [Lektor i Napisy PL]
[DivX - XviD] Czas zapaty - Welcome to the Punch (2013) [BDRip] [XviD-GHW] [Lektor PL]
[DivX - XviD] Czas zapaty - Welcome to the Punch *2013* [BDRip] [XviD-GHW] [Lektor PL]
[DivX - XviD] Czas zapaty / Welcome to the Punch (2013) [480p] [BDRip] [XviD] [AC3-sav] [Lektor PL] [Karibu]
[x 264] Zawsze jest czas na milosc / Hampstead (2017) [720p] [WEB-DL] [H264-LLA] [Lektor PL] [Karibu]
[DivX - XviD] Milosc z przedszkola - Keinohrhasen (2007) [720p] [BDRip] [XviD] [AC3-H1] [Lektor PL]
[DivX - XviD] Czas zabijania - Time to kill *1990* [DVDRip.XviD] [Lektor PL]
[DivX - XviD] Czas zabijania - A Time to Kill *1996* [DvDRiP.XviD] [Lektor PL]
Szczegóły torrenta
Trackerhttp://tracker.filetracker.pl:8089/announce
Multitracker http://tracker.filetracker.pl:8089/announce
http://tracker.free-torrents.pl/announce
http://tracker.streettorrent.pl:80/announce
http://tracker.torrenty.org:6969/announce
http://tracker.aletorrenty.pl:2710/announce
http://tracker.pubt.net:2710/announce
http://94.228.192.98/announce
http://www.tlv.cc:7777/announce
http://retracker.omsk.ru:2710/announce
http://tracker.immortaltorrent.pl/announce
udp://open.demonii.com:1337/announce
http://tracker.best-torrents.net:6969/announce
udp://torrent.gresille.org:80/announce
udp://9.rarbg.me:2710/announce
udp://eddie4.nl:6969/announce
udp://tracker.leechers-paradise.org:6969/announce
udp://tracker4.piratux.com:6969/announce
udp://www.eddie4.nl:6969/announce
udp://tracker.openbittorrent.com:80/announce
udp://tracker.publicbt.com:80/announce
udp://ipv4.tracker.harry.lu:80/announce
udp://tracker.publicbt.com/announce
udp://shadowshq.eddie4.nl:6969/announce
udp://9.rarbg.com:2710/announce
udp://11.rarbg.com:80/announce
udp://10.rarbg.com/announce
udp://tracker.istole.it:80/announce
udp://exodus.desync.com:6969
udp://tracker.prq.to/announce
udp://tracker.openbittorrent.com:80/announce
udp://tracker.publicbt.com:80/announce

Kategoria:Filmy » DivX - XviD
Dodane09/06/2016 18:06:11
Ostatnie Uaktualnienie09/06/2016 19:07:49
Pokaż/Ukryj pliki:
5 plików
NIKT JESZCZE NIE DODAŁ KOMENTARZA

DODAJ KOMENTARZ
Więcej Emoticon



Wstecz

Żaden z opisanych na stronie plików nie jest przetrzymywany na serwerze. Administrator strony immortaltorrent.pl nie może ponieść konsekwencji prawnych za to co użytkownicy zamieszczają lub piszą na stronie.
Nie możesz używać tego serwisu do rozpowszechniania lub ściągania materiałów do których nie masz odpowiednich praw lub licencji. Użytkownicy zobowiązani są do przestrzeganie tych zasad.
Rejestracja konta jest jednoznaczna z akceptacją zasad.

2018 © immortaltorrent.pl


Najlepsze strony Torrentowe